  0
SECTION
  2
HEADER
  9
$ACADVER
  1
AC1018
  9
$ACADMAINTVER
 70
     2
  9
$DWGCODEPAGE
  3
ANSI_932
  9
$INSBASE
 10
0.0
 20
0.0
 30
0.0
  9
$EXTMIN
 10
-33.5289791925602
 20
153.9835518961581
 30
-0.0000000000000053
  9
$EXTMAX
 10
457.4943872879909
 20
238.0269018679704
 30
0.0000000000000099
  9
$LIMMIN
 10
0.0
 20
0.0
  9
$LIMMAX
 10
420.0
 20
297.0
  9
$ORTHOMODE
 70
     1
  9
$REGENMODE
 70
     1
  9
$FILLMODE
 70
     1
  9
$QTEXTMODE
 70
     0
  9
$MIRRTEXT
 70
     1
  9
$LTSCALE
 40
0.5
  9
$ATTMODE
 70
     1
  9
$TEXTSIZE
 40
3.0
  9
$TRACEWID
 40
1.0
  9
$TEXTSTYLE
  7
Standard
  9
$CLAYER
  8
1-線
  9
$CELTYPE
  6
ByLayer
  9
$CECOLOR
 62
   256
  9
$CELTSCALE
 40
1.0
  9
$DISPSILH
 70
     0
  9
$DIMSCALE
 40
1.0
  9
$DIMASZ
 40
2.5
  9
$DIMEXO
 40
0.0
  9
$DIMDLI
 40
3.75
  9
$DIMRND
 40
0.0
  9
$DIMDLE
 40
0.0
  9
$DIMEXE
 40
1.0
  9
$DIMTP
 40
0.0
  9
$DIMTM
 40
0.0
  9
$DIMTXT
 40
3.0
  9
$DIMCEN
 40
0.0
  9
$DIMTSZ
 40
0.0
  9
$DIMTOL
 70
     0
  9
$DIMLIM
 70
     0
  9
$DIMTIH
 70
     0
  9
$DIMTOH
 70
     0
  9
$DIMSE1
 70
     0
  9
$DIMSE2
 70
     0
  9
$DIMTAD
 70
     1
  9
$DIMZIN
 70
     8
  9
$DIMBLK
  1
Open30
  9
$DIMASO
 70
     1
  9
$DIMSHO
 70
     1
  9
$DIMPOST
  1

  9
$DIMAPOST
  1

  9
$DIMALT
 70
     0
  9
$DIMALTD
 70
     3
  9
$DIMALTF
 40
0.1
  9
$DIMLFAC
 40
1.0
  9
$DIMTOFL
 70
     1
  9
$DIMTVP
 40
0.0
  9
$DIMTIX
 70
     0
  9
$DIMSOXD
 70
     0
  9
$DIMSAH
 70
     0
  9
$DIMBLK1
  1

  9
$DIMBLK2
  1

  9
$DIMSTYLE
  2
Kyouwa
  9
$DIMCLRD
 70
     0
  9
$DIMCLRE
 70
     0
  9
$DIMCLRT
 70
     0
  9
$DIMTFAC
 40
0.7
  9
$DIMGAP
 40
1.0
  9
$DIMJUST
 70
     0
  9
$DIMSD1
 70
     0
  9
$DIMSD2
 70
     0
  9
$DIMTOLJ
 70
     0
  9
$DIMTZIN
 70
     8
  9
$DIMALTZ
 70
     0
  9
$DIMALTTZ
 70
     0
  9
$DIMUPT
 70
     0
  9
$DIMDEC
 70
     2
  9
$DIMTDEC
 70
     2
  9
$DIMALTU
 70
     2
  9
$DIMALTTD
 70
     3
  9
$DIMTXSTY
  7
Standard
  9
$DIMAUNIT
 70
     0
  9
$DIMADEC
 70
     0
  9
$DIMALTRND
 40
0.0
  9
$DIMAZIN
 70
     0
  9
$DIMDSEP
 70
    46
  9
$DIMATFIT
 70
     3
  9
$DIMFRAC
 70
     0
  9
$DIMLDRBLK
  1
Open30
  9
$DIMLUNIT
 70
     2
  9
$DIMLWD
 70
    -2
  9
$DIMLWE
 70
    -2
  9
$DIMTMOVE
 70
     0
  9
$LUNITS
 70
     2
  9
$LUPREC
 70
     4
  9
$SKETCHINC
 40
1.0
  9
$FILLETRAD
 40
1.0
  9
$AUNITS
 70
     0
  9
$AUPREC
 70
     0
  9
$MENU
  1
.
  9
$ELEVATION
 40
0.0
  9
$PELEVATION
 40
0.0
  9
$THICKNESS
 40
0.0
  9
$LIMCHECK
 70
     0
  9
$CHAMFERA
 40
0.0
  9
$CHAMFERB
 40
0.0
  9
$CHAMFERC
 40
20.0
  9
$CHAMFERD
 40
0.0
  9
$SKPOLY
 70
     0
  9
$TDCREATE
 40
2452108.402762732
  9
$TDUCREATE
 40
2452108.027762732
  9
$TDUPDATE
 40
2454348.762949398
  9
$TDUUPDATE
 40
2454348.387949398
  9
$TDINDWG
 40
1.5298893750
  9
$TDUSRTIMER
 40
1.5298891898
  9
$USRTIMER
 70
     1
  9
$ANGBASE
 50
0.0
  9
$ANGDIR
 70
     0
  9
$PDMODE
 70
     0
  9
$PDSIZE
 40
0.0
  9
$PLINEWID
 40
0.0
  9
$SPLFRAME
 70
     0
  9
$SPLINETYPE
 70
     6
  9
$SPLINESEGS
 70
     8
  9
$HANDSEED
  5
53A2
  9
$SURFTAB1
 70
     6
  9
$SURFTAB2
 70
     6
  9
$SURFTYPE
 70
     6
  9
$SURFU
 70
     6
  9
$SURFV
 70
     6
  9
$UCSBASE
  2

  9
$UCSNAME
  2

  9
$UCSORG
 10
0.0
 20
0.0
 30
0.0
  9
$UCSXDIR
 10
1.0
 20
0.0
 30
0.0
  9
$UCSYDIR
 10
0.0
 20
1.0
 30
0.0
  9
$UCSORTHOREF
  2

  9
$UCSORTHOVIEW
 70
     0
  9
$UCSORGTOP
 10
0.0
 20
0.0
 30
0.0
  9
$UCSORGBOTTOM
 10
0.0
 20
0.0
 30
0.0
  9
$UCSORGLEFT
 10
0.0
 20
0.0
 30
0.0
  9
$UCSORGRIGHT
 10
0.0
 20
0.0
 30
0.0
  9
$UCSORGFRONT
 10
0.0
 20
0.0
 30
0.0
  9
$UCSORGBACK
 10
0.0
 20
0.0
 30
0.0
  9
$PUCSBASE
  2

  9
$PUCSNAME
  2

  9
$PUCSORG
 10
0.0
 20
0.0
 30
0.0
  9
$PUCSXDIR
 10
1.0
 20
0.0
 30
0.0
  9
$PUCSYDIR
 10
0.0
 20
1.0
 30
0.0
  9
$PUCSORTHOREF
  2

  9
$PUCSORTHOVIEW
 70
     0
  9
$PUCSORGTOP
 10
0.0
 20
0.0
 30
0.0
  9
$PUCSORGBOTTOM
 10
0.0
 20
0.0
 30
0.0
  9
$PUCSORGLEFT
 10
0.0
 20
0.0
 30
0.0
  9
$PUCSORGRIGHT
 10
0.0
 20
0.0
 30
0.0
  9
$PUCSORGFRONT
 10
0.0
 20
0.0
 30
0.0
  9
$PUCSORGBACK
 10
0.0
 20
0.0
 30
0.0
  9
$USERI1
 70
     0
  9
$USERI2
 70
     0
  9
$USERI3
 70
     0
  9
$USERI4
 70
     0
  9
$USERI5
 70
     0
  9
$USERR1
 40
0.0
  9
$USERR2
 40
0.0
  9
$USERR3
 40
0.0
  9
$USERR4
 40
0.0
  9
$USERR5
 40
0.0
  9
$WORLDVIEW
 70
     1
  9
$SHADEDGE
 70
     3
  9
$SHADEDIF
 70
    70
  9
$TILEMODE
 70
     1
  9
$MAXACTVP
 70
    48
  9
$PINSBASE
 10
0.0
 20
0.0
 30
0.0
  9
$PLIMCHECK
 70
     0
  9
$PEXTMIN
 10
1.000000000000000E+20
 20
1.000000000000000E+20
 30
1.000000000000000E+20
  9
$PEXTMAX
 10
-1.000000000000000E+20
 20
-1.000000000000000E+20
 30
-1.000000000000000E+20
  9
$PLIMMIN
 10
0.0
 20
0.0
  9
$PLIMMAX
 10
420.0
 20
297.0
  9
$UNITMODE
 70
     0
  9
$VISRETAIN
 70
     1
  9
$PLINEGEN
 70
     0
  9
$PSLTSCALE
 70
     1
  9
$TREEDEPTH
 70
  3020
  9
$CMLSTYLE
  2
Standard
  9
$CMLJUST
 70
     0
  9
$CMLSCALE
 40
20.0
  9
$PROXYGRAPHICS
 70
     1
  9
$MEASUREMENT
 70
     0
  9
$CELWEIGHT
370
    -1
  9
$ENDCAPS
280
     0
  9
$JOINSTYLE
280
     0
  9
$LWDISPLAY
290
     0
  9
$INSUNITS
 70
     4
  9
$HYPERLINKBASE
  1

  9
$STYLESHEET
  1
MONOCHROME.CTB
  9
$XEDIT
290
     1
  9
$CEPSNTYPE
380
     0
  9
$PSTYLEMODE
290
     1
  9
$FINGERPRINTGUID
  2
{D5BDD00D-7A95-11D5-B0EC-00E0181A799A}
  9
$VERSIONGUID
  2
{F9E145CA-EF72-40EE-980C-117EE98504A7}
  9
$EXTNAMES
290
     1
  9
$PSVPSCALE
 40
0.0
  9
$OLESTARTUP
290
     0
  9
$SORTENTS
280
    96
  9
$INDEXCTL
280
     0
  9
$HIDETEXT
280
     0
  9
$XCLIPFRAME
290
     0
  9
$HALOGAP
280
     0
  9
$OBSCOLOR
 70
   257
  9
$OBSLTYPE
280
     0
  9
$INTERSECTIONDISPLAY
280
     0
  9
$INTERSECTIONCOLOR
 70
   257
  9
$DIMASSOC
280
     1
  9
$PROJECTNAME
  1

  0
ENDSEC
  0
SECTION
  2
CLASSES
  0
CLASS
  1
ACDBDICTIONARYWDFLT
  2
AcDbDictionaryWithDefault
  3
ObjectDBX Classes
 90
        0
 91
        1
280
     0
281
     0
  0
CLASS
  1
PLOTSETTINGS
  2
AcDbPlotSettings
  3
ObjectDBX Classes
 90
        0
 91
        1
280
     0
281
     0
  0
CLASS
  1
DICTIONARYVAR
  2
AcDbDictionaryVar
  3
ObjectDBX Classes
 90
        0
 91
        1
280
     0
281
     0
  0
ENDSEC
  0
SECTION
  2
TABLES
  0
TABLE
  2
VPORT
  5
8
330
0
100
AcDbSymbolTable
 70
     3
  0
VPORT
  5
53A1
330
8
100
AcDbSymbolTableRecord
100
AcDbViewportTableRecord
  2
*Active
 70
     0
 10
0.0
 20
0.0
 11
1.0
 21
1.0
 12
211.9827040477154
 22
196.0052268820643
 13
0.0
 23
0.0
 14
4.0
 24
4.0
 15
8.0
 25
8.0
 16
0.0
 26
0.0
 36
1.0
 17
0.0
 27
0.0
 37
0.0
 40
228.9710649874388
 41
2.155234657039711
 42
50.0
 43
0.0
 44
0.0
 50
0.0
 51
0.0
 71
     0
 72
   100
 73
     1
 74
     3
 75
     0
 76
     1
 77
     0
 78
     0
281
     0
 65
     1
110
0.0
120
0.0
130
0.0
111
1.0
121
0.0
131
0.0
112
0.0
122
1.0
132
0.0
 79
     0
146
0.0
  0
ENDTAB
  0
TABLE
  2
LTYPE
  5
5
330
0
100
AcDbSymbolTable
 70
     5
  0
LTYPE
  5
14
330
5
100
AcDbSymbolTableRecord
100
AcDbLinetypeTableRecord
  2
ByBlock
 70
     0
  3

 72
    65
 73
     0
 40
0.0
  0
LTYPE
  5
15
330
5
100
AcDbSymbolTableRecord
100
AcDbLinetypeTableRecord
  2
ByLayer
 70
     0
  3

 72
    65
 73
     0
 40
0.0
  0
LTYPE
  5
16
330
5
100
AcDbSymbolTableRecord
100
AcDbLinetypeTableRecord
  2
Continuous
 70
     0
  3
Solid line
 72
    65
 73
     0
 40
0.0
  0
LTYPE
  5
2D
330
5
100
AcDbSymbolTableRecord
100
AcDbLinetypeTableRecord
  2
HIDDEN2
 70
     0
  3
Hidden (.5x) _ _ _ _ _ _ _ _ _ _ _ _ _ _ _ _ _
 72
    65
 73
     2
 40
4.762499999999998
 49
3.174999999999998
 74
     0
 49
-1.587499999999999
 74
     0
  0
LTYPE
  5
2E
330
5
100
AcDbSymbolTableRecord
100
AcDbLinetypeTableRecord
  2
CENTER2
 70
     0
  3
Center (.5x) ___ _ ___ _ ___ _ ___ _ ___ _ ___
 72
    65
 73
     4
 40
28.575
 49
19.05
 74
     0
 49
-3.174999999999998
 74
     0
 49
3.174999999999998
 74
     0
 49
-3.174999999999998
 74
     0
  0
LTYPE
  5
2F
330
5
100
AcDbSymbolTableRecord
100
AcDbLinetypeTableRecord
  2
PHANTOM2
 70
     0
  3
Phantom (.5x) ___ _ _ ___ _ _ ___ _ _ ___ _ _
 72
    65
 73
     6
 40
31.75
 49
15.875
 74
     0
 49
-3.174999999999998
 74
     0
 49
3.174999999999998
 74
     0
 49
-3.174999999999998
 74
     0
 49
3.174999999999998
 74
     0
 49
-3.174999999999998
 74
     0
  0
LTYPE
  5
FD
330
5
100
AcDbSymbolTableRecord
100
AcDbLinetypeTableRecord
  2
CENTER
 70
     0
  3
Center ____ _ ____ _ ____ _ ____ _ ____ _ ____
 72
    65
 73
     4
 40
50.8
 49
31.75
 74
     0
 49
-6.349999999999998
 74
     0
 49
6.349999999999998
 74
     0
 49
-6.349999999999998
 74
     0
  0
ENDTAB
  0
TABLE
  2
LAYER
  5
2
330
0
100
AcDbSymbolTable
 70
    17
  0
LAYER
  5
10
330
2
100
AcDbSymbolTableRecord
100
AcDbLayerTableRecord
  2
0
 70
     0
 62
     7
  6
Continuous
370
   100
390
F
  0
LAYER
  5
30
330
2
100
AcDbSymbolTableRecord
100
AcDbLayerTableRecord
  2
1-線
 70
     0
 62
     3
  6
Continuous
370
    18
390
F
  0
LAYER
  5
31
330
2
100
AcDbSymbolTableRecord
100
AcDbLayerTableRecord
  2
1-破線
 70
     0
 62
     3
  6
HIDDEN2
370
    18
390
F
  0
LAYER
  5
32
330
2
100
AcDbSymbolTableRecord
100
AcDbLayerTableRecord
  2
1-1点
 70
     0
 62
     3
  6
CENTER2
370
    18
390
F
  0
LAYER
  5
33
330
2
100
AcDbSymbolTableRecord
100
AcDbLayerTableRecord
  2
1-2点
 70
     0
 62
     3
  6
PHANTOM2
370
    18
390
F
  0
LAYER
  5
3A
330
2
100
AcDbSymbolTableRecord
100
AcDbLayerTableRecord
  2
2-1点
 70
     0
 62
     6
  6
CENTER2
370
    18
390
F
  0
LAYER
  5
3B
330
2
100
AcDbSymbolTableRecord
100
AcDbLayerTableRecord
  2
2-2点
 70
     0
 62
     6
  6
PHANTOM2
370
    18
390
F
  0
LAYER
  5
3C
330
2
100
AcDbSymbolTableRecord
100
AcDbLayerTableRecord
  2
2-線
 70
     0
 62
     6
  6
Continuous
370
    18
390
F
  0
LAYER
  5
3D
330
2
100
AcDbSymbolTableRecord
100
AcDbLayerTableRecord
  2
2-破線
 70
     0
 62
     6
  6
HIDDEN2
370
    18
390
F
  0
LAYER
  5
3E
330
2
100
AcDbSymbolTableRecord
100
AcDbLayerTableRecord
  2
3-線
 70
     0
 62
     4
  6
Continuous
370
    35
390
F
  0
LAYER
  5
40
330
2
100
AcDbSymbolTableRecord
100
AcDbLayerTableRecord
  2
4-線
 70
     0
 62
     2
  6
Continuous
370
    35
390
F
  0
LAYER
  5
41
330
2
100
AcDbSymbolTableRecord
100
AcDbLayerTableRecord
  2
5-線
 70
     0
 62
     5
  6
Continuous
370
    35
390
F
  0
LAYER
  5
42
330
2
100
AcDbSymbolTableRecord
100
AcDbLayerTableRecord
  2
5-破線
 70
     0
 62
     5
  6
HIDDEN2
370
    18
390
F
  0
LAYER
  5
43
330
2
100
AcDbSymbolTableRecord
100
AcDbLayerTableRecord
  2
6-線
 70
     0
 62
     1
  6
Continuous
370
    35
390
F
  0
LAYER
  5
44
330
2
100
AcDbSymbolTableRecord
100
AcDbLayerTableRecord
  2
6-破線
 70
     0
 62
     1
  6
HIDDEN2
370
    18
390
F
  0
LAYER
  5
FF
330
2
100
AcDbSymbolTableRecord
100
AcDbLayerTableRecord
  2
4
 70
     0
 62
     6
  6
Continuous
370
    18
390
F
  0
LAYER
  5
1DD
330
2
100
AcDbSymbolTableRecord
100
AcDbLayerTableRecord
  2
Defpoints
 70
     4
 62
     7
  6
Continuous
290
     0
370
    -3
390
F
  0
ENDTAB
  0
TABLE
  2
STYLE
  5
3
330
0
100
AcDbSymbolTable
 70
     3
  0
STYLE
  5
11
330
3
100
AcDbSymbolTableRecord
100
AcDbTextStyleTableRecord
  2
Standard
 70
     0
 40
0.0
 41
1.0
 50
0.0
 71
     0
 42
3.0
  3
txt.shx
  4
bigfont.shx
  0
STYLE
  5
2C
330
3
100
AcDbSymbolTableRecord
100
AcDbTextStyleTableRecord
  2

 70
     1
 40
0.0
 41
1.0
 50
0.0
 71
     0
 42
2.5
  3
ltypeshp.shx
  4

  0
STYLE
  5
9C
330
3
100
AcDbSymbolTableRecord
100
AcDbTextStyleTableRecord
  2
縦
 70
     4
 40
0.0
 41
1.0
 50
0.0
 71
     0
 42
2.799999999999998
  3
txt.shx
  4
bigfont.shx
  0
ENDTAB
  0
TABLE
  2
VIEW
  5
6
330
0
100
AcDbSymbolTable
 70
     1
  0
VIEW
  5
502
330
6
100
AcDbSymbolTableRecord
100
AcDbViewTableRecord
  2
OLE1
 70
     0
 40
233.3949522673788
 10
309.4656970073121
 20
48.01785105749138
 41
232.3911030103148
 11
0.0
 21
0.0
 31
1.0
 12
0.0
 22
0.0
 32
0.0
 42
50.0
 43
0.0
 44
0.0
 50
0.0
 71
     0
281
     0
 72
     0
  0
ENDTAB
  0
TABLE
  2
UCS
  5
7
330
0
100
AcDbSymbolTable
 70
     0
  0
ENDTAB
  0
TABLE
  2
APPID
  5
9
330
0
100
AcDbSymbolTable
 70
     1
  0
APPID
  5
12
330
9
100
AcDbSymbolTableRecord
100
AcDbRegAppTableRecord
  2
ACAD
 70
     0
  0
ENDTAB
  0
TABLE
  2
DIMSTYLE
  5
A
330
0
100
AcDbSymbolTable
 70
     3
100
AcDbDimStyleTable
 71
     1
340
1C8
  0
DIMSTYLE
105
27
330
A
100
AcDbSymbolTableRecord
100
AcDbDimStyleTableRecord
  2
ISO-25
 70
     0
 41
2.5
 42
0.625
 43
3.75
 44
1.25
 73
     0
 74
     0
 77
     1
 78
     8
140
2.5
141
2.5
143
0.03937007874016
147
0.625
171
     3
172
     1
271
     2
272
     2
274
     3
283
     0
284
     8
340
11
  0
DIMSTYLE
105
100
330
A
100
AcDbSymbolTableRecord
100
AcDbDimStyleTableRecord
  2
JIS
 70
     0
 41
2.5
 42
1.0
 43
7.0
 44
1.0
 73
     0
 74
     0
 77
     1
 78
     8
140
2.5
141
0.0
143
0.0394
147
0.0
172
     1
174
     1
175
     1
340
11
  0
DIMSTYLE
105
1C8
102
{ACAD_REACTORS
330
49EA
330
49EB
330
49EE
330
49EF
330
4A2F
102
}
330
A
100
AcDbSymbolTableRecord
100
AcDbDimStyleTableRecord
  2
Kyouwa
 70
     0
 41
2.5
 42
0.0
 43
3.75
 44
1.0
 73
     0
 74
     0
 77
     1
 78
     8
140
3.0
141
0.0
143
0.1
146
0.7
147
1.0
171
     3
172
     1
271
     2
272
     2
274
     3
283
     0
284
     8
340
11
341
1C2
342
1C2
  0
ENDTAB
  0
TABLE
  2
BLOCK_RECORD
  5
1
330
0
100
AcDbSymbolTable
 70
    30
  0
BLOCK_RECORD
  5
1F
102
{ACAD_XDICTIONARY
360
474
102
}
330
1
100
AcDbSymbolTableRecord
100
AcDbBlockTableRecord
  2
*Model_Space
340
22
  0
BLOCK_RECORD
  5
1B
102
{ACAD_XDICTIONARY
360
476
102
}
330
1
100
AcDbSymbolTableRecord
100
AcDbBlockTableRecord
  2
*Paper_Space
340
1E
  0
BLOCK_RECORD
  5
23
102
{ACAD_XDICTIONARY
360
478
102
}
330
1
100
AcDbSymbolTableRecord
100
AcDbBlockTableRecord
  2
*Paper_Space0
340
26
  0
BLOCK_RECORD
  5
101
330
1
100
AcDbSymbolTableRecord
100
AcDbBlockTableRecord
  2
A$C77221E2E
340
0
  0
BLOCK_RECORD
  5
1C2
330
1
100
AcDbSymbolTableRecord
100
AcDbBlockTableRecord
  2
_Open30
340
0
102
{BLKREFS
331
49BA
331
49BB
331
49AE
331
49AF
331
49DE
331
49DF
331
49C6
331
49C7
331
4A11
331
49D2
331
49D3
331
4A7D
331
4FDB
331
4FDC
331
4FFF
331
5000
331
501E
331
501F
331
5027
331
5028
331
5030
331
5031
331
50B7
331
50B8
331
50C0
331
50C1
331
50C9
331
50CA
331
5298
331
5299
331
52BC
331
52BD
331
52EA
331
52EB
331
5330
331
5331
331
5351
331
5352
331
535C
331
535D
331
5369
331
536A
331
5384
331
5385
102
}
  0
BLOCK_RECORD
  5
504
330
1
100
AcDbSymbolTableRecord
100
AcDbBlockTableRecord
  2
A$C56C037E7
340
0
  0
BLOCK_RECORD
  5
1BF1
330
1
100
AcDbSymbolTableRecord
100
AcDbBlockTableRecord
  2
A$C313832AB
340
0
  0
BLOCK_RECORD
  5
1F5E
330
1
100
AcDbSymbolTableRecord
100
AcDbBlockTableRecord
  2
A$C1D0B0400
340
0
  0
BLOCK_RECORD
  5
28EE
330
1
100
AcDbSymbolTableRecord
100
AcDbBlockTableRecord
  2
*D6
340
0
  0
BLOCK_RECORD
  5
296D
330
1
100
AcDbSymbolTableRecord
100
AcDbBlockTableRecord
  2
*D7
340
0
  0
BLOCK_RECORD
  5
4570
330
1
100
AcDbSymbolTableRecord
100
AcDbBlockTableRecord
  2
A$C7AA157BA
340
0
  0
BLOCK_RECORD
  5
4982
330
1
100
AcDbSymbolTableRecord
100
AcDbBlockTableRecord
  2
A$C56C91989
340
0
  0
BLOCK_RECORD
  5
49AA
330
1
100
AcDbSymbolTableRecord
100
AcDbBlockTableRecord
  2
*D10
340
0
  0
BLOCK_RECORD
  5
49B6
330
1
100
AcDbSymbolTableRecord
100
AcDbBlockTableRecord
  2
*D11
340
0
  0
BLOCK_RECORD
  5
49C2
330
1
100
AcDbSymbolTableRecord
100
AcDbBlockTableRecord
  2
*D12
340
0
  0
BLOCK_RECORD
  5
49CE
330
1
100
AcDbSymbolTableRecord
100
AcDbBlockTableRecord
  2
*D13
340
0
  0
BLOCK_RECORD
  5
49DA
330
1
100
AcDbSymbolTableRecord
100
AcDbBlockTableRecord
  2
*D14
340
0
  0
BLOCK_RECORD
  5
49E6
330
1
100
AcDbSymbolTableRecord
100
AcDbBlockTableRecord
  2
A$C46152F82
340
0
  0
BLOCK_RECORD
  5
4F14
330
1
100
AcDbSymbolTableRecord
100
AcDbBlockTableRecord
  2
*D16
340
0
  0
BLOCK_RECORD
  5
4F2E
330
1
100
AcDbSymbolTableRecord
100
AcDbBlockTableRecord
  2
*D17
340
0
  0
BLOCK_RECORD
  5
4F3B
330
1
100
AcDbSymbolTableRecord
100
AcDbBlockTableRecord
  2
*D18
340
0
  0
BLOCK_RECORD
  5
4F48
330
1
100
AcDbSymbolTableRecord
100
AcDbBlockTableRecord
  2
*D19
340
0
  0
BLOCK_RECORD
  5
4F55
330
1
100
AcDbSymbolTableRecord
100
AcDbBlockTableRecord
  2
*D20
340
0
  0
BLOCK_RECORD
  5
4F62
330
1
100
AcDbSymbolTableRecord
100
AcDbBlockTableRecord
  2
*D21
340
0
  0
BLOCK_RECORD
  5
5006
330
1
100
AcDbSymbolTableRecord
100
AcDbBlockTableRecord
  2
*D22
340
0
  0
BLOCK_RECORD
  5
5175
330
1
100
AcDbSymbolTableRecord
100
AcDbBlockTableRecord
  2
*D23
340
0
  0
BLOCK_RECORD
  5
5181
330
1
100
AcDbSymbolTableRecord
100
AcDbBlockTableRecord
  2
*D24
340
0
  0
BLOCK_RECORD
  5
518E
330
1
100
AcDbSymbolTableRecord
100
AcDbBlockTableRecord
  2
*D25
340
0
  0
BLOCK_RECORD
  5
5342
330
1
100
AcDbSymbolTableRecord
100
AcDbBlockTableRecord
  2
*D26
340
0
  0
BLOCK_RECORD
  5
5358
330
1
100
AcDbSymbolTableRecord
100
AcDbBlockTableRecord
  2
*D27
340
0
  0
BLOCK_RECORD
  5
5365
330
1
100
AcDbSymbolTableRecord
100
AcDbBlockTableRecord
  2
*D28
340
0
  0
BLOCK_RECORD
  5
5380
330
1
100
AcDbSymbolTableRecord
100
AcDbBlockTableRecord
  2
*D29
340
0
  0
ENDTAB
  0
ENDSEC
  0
SECTION
  2
BLOCKS
  0
BLOCK
  5
20
330
1F
100
AcDbEntity
  8
0
100
AcDbBlockBegin
  2
*Model_Space
 70
     0
 10
0.0
 20
0.0
 30
0.0
  3
*Model_Space
  1

  0
ENDBLK
  5
21
330
1F
100
AcDbEntity
  8
0
100
AcDbBlockEnd
  0
BLOCK
  5
1C
330
1B
100
AcDbEntity
 67
     1
  8
0
100
AcDbBlockBegin
  2
*Paper_Space
 70
     0
 10
0.0
 20
0.0
 30
0.0
  3
*Paper_Space
  1

  0
ENDBLK
  5
1D
330
1B
100
AcDbEntity
 67
     1
  8
0
100
AcDbBlockEnd
  0
BLOCK
  5
24
330
23
100
AcDbEntity
  8
0
100
AcDbBlockBegin
  2
*Paper_Space0
 70
     0
 10
0.0
 20
0.0
 30
0.0
  3
*Paper_Space0
  1

  0
ENDBLK
  5
25
330
23
100
AcDbEntity
  8
0
100
AcDbBlockEnd
  0
BLOCK
  5
10C
330
101
100
AcDbEntity
  8
0
100
AcDbBlockBegin
  2
A$C77221E2E
 70
     0
 10
0.0
 20
0.0
 30
0.0
  3
A$C77221E2E
  1

  0
TEXT
  5
102
330
101
100
AcDbEntity
  8
4
  6
CENTER
100
AcDbText
 10
-1.383100251097403
 20
-4.957558222773967
 30
0.0
 40
5.5
  1
0
 50
90.0
100
AcDbText
  0
TEXT
  5
103
330
101
100
AcDbEntity
  8
4
  6
CENTER
100
AcDbText
 10
-1.383100251097403
 20
-10.95755822277397
 30
0.0
 40
5.5
  1
9
 50
90.0
100
AcDbText
  0
TEXT
  5
104
330
101
100
AcDbEntity
  8
4
  6
CENTER
100
AcDbText
 10
-1.383100251097403
 20
-16.95755822277397
 30
0.0
 40
5.5
  1
8
 50
90.0
100
AcDbText
  0
TEXT
  5
105
330
101
100
AcDbEntity
  8
4
  6
CENTER
100
AcDbText
 10
-1.383100251097403
 20
-22.95755822277397
 30
0.0
 40
5.5
  1
7
 50
90.0
100
AcDbText
  0
TEXT
  5
106
330
101
100
AcDbEntity
  8
4
  6
CENTER
100
AcDbText
 10
-1.383100251097403
 20
-28.95755822277397
 30
0.0
 40
5.5
  1
6
 50
90.0
100
AcDbText
  0
TEXT
  5
107
330
101
100
AcDbEntity
  8
4
  6
CENTER
100
AcDbText
 10
-1.383100251097403
 20
-34.95755822277397
 30
0.0
 40
5.5
  1
5
 50
90.0
100
AcDbText
  0
TEXT
  5
108
330
101
100
AcDbEntity
  8
4
  6
CENTER
100
AcDbText
 10
-1.383100251097403
 20
-40.95755822277395
 30
0.0
 40
5.5
  1
4
 50
90.0
100
AcDbText
  0
TEXT
  5
109
330
101
100
AcDbEntity
  8
4
  6
CENTER
100
AcDbText
 10
-1.383100251097403
 20
-46.95755822277397
 30
0.0
 40
5.5
  1
3
 50
90.0
100
AcDbText
  0
TEXT
  5
10A
330
101
100
AcDbEntity
  8
4
  6
CENTER
100
AcDbText
 10
-1.383100251097403
 20
-52.95755822277397
 30
0.0
 40
5.5
  1
2
 50
90.0
100
AcDbText
  0
TEXT
  5
10B
330
101
100
AcDbEntity
  8
4
  6
CENTER
100
AcDbText
 10
-1.383100251097403
 20
-58.95755822277397
 30
0.0
 40
5.5
  1
1
 50
90.0
100
AcDbText
  0
ENDBLK
  5
10D
330
101
100
AcDbEntity
  8
0
100
AcDbBlockEnd
  0
BLOCK
  5
1C6
330
1C2
100
AcDbEntity
  8
0
100
AcDbBlockBegin
  2
_Open30
 70
     0
 10
0.0
 20
0.0
 30
0.0
  3
_Open30
  1

  0
LINE
  5
1C3
330
1C2
100
AcDbEntity
  8
0
  6
ByBlock
 62
     0
370
    -2
100
AcDbLine
 10
-1.0
 20
0.26794919
 30
0.0
 11
0.0
 21
0.0
 31
0.0
  0
LINE
  5
1C4
330
1C2
100
AcDbEntity
  8
0
  6
ByBlock
 62
     0
370
    -2
100
AcDbLine
 10
0.0
 20
0.0
 30
0.0
 11
-1.0
 21
-0.26794919
 31
0.0
  0
LINE
  5
1C5
330
1C2
100
AcDbEntity
  8
0
  6
ByBlock
 62
     0
370
    -2
100
AcDbLine
 10
0.0
 20
0.0
 30
0.0
 11
-1.0
 21
0.0
 31
0.0
  0
ENDBLK
  5
1C7
330
1C2
100
AcDbEntity
  8
0
100
AcDbBlockEnd
  0
BLOCK
  5
5AA
330
504
100
AcDbEntity
  8
0
100
AcDbBlockBegin
  2
A$C56C037E7
 70
     0
 10
0.0
 20
0.0
 30
0.0
  3
A$C56C037E7
  1

  0
LINE
  5
505
330
504
100
AcDbEntity
  8
0
100
AcDbLine
 10
420.0
 20
0.0
 30
0.0
 11
410.0
 21
0.0
 31
0.0
  0
LINE
  5
506
330
504
100
AcDbEntity
  8
0
100
AcDbLine
 10
0.0
 20
297.0
 30
0.0
 11
0.0
 21
287.0
 31
0.0
  0
LINE
  5
507
330
504
100
AcDbEntity
  8
0
100
AcDbLine
 10
420.0
 20
297.0
 30
0.0
 11
420.0
 21
287.0
 31
0.0
  0
LINE
  5
508
330
504
100
AcDbEntity
  8
0
100
AcDbLine
 10
0.0
 20
297.0
 30
0.0
 11
25.0
 21
297.0
 31
0.0
  0
LINE
  5
509
330
504
100
AcDbEntity
  8
3-線
 62
     4
100
AcDbLine
 10
26.0
 20
287.0
 30
0.0
 11
410.0
 21
287.0
 31
0.0
  0
LINE
  5
50A
330
504
100
AcDbEntity
  8
3-線
100
AcDbLine
 10
26.0
 20
287.0
 30
0.0
 11
26.0
 21
10.0
 31
0.0
  0
LINE
  5
50B
330
504
100
AcDbEntity
  8
3-線
100
AcDbLine
 10
26.0
 20
10.0
 30
0.0
 11
410.0
 21
10.0
 31
0.0
  0
LINE
  5
50C
330
504
100
AcDbEntity
  8
3-線
100
AcDbLine
 10
410.0
 20
287.0
 30
0.0
 11
410.0
 21
10.0
 31
0.0
  0
LINE
  5
50D
330
504
100
AcDbEntity
  8
0
100
AcDbLine
 10
410.0
 20
297.0
 30
0.0
 11
420.0
 21
297.0
 31
0.0
  0
LINE
  5
50E
330
504
100
AcDbEntity
  8
0
100
AcDbLine
 10
420.0
 20
10.0
 30
0.0
 11
420.0
 21
0.0
 31
0.0
  0
LINE
  5
50F
330
504
100
AcDbEntity
  8
0
100
AcDbLine
 10
15.0
 20
0.0
 30
0.0
 11
0.0
 21
0.0
 31
0.0
  0
LINE
  5
510
330
504
100
AcDbEntity
  8
0
100
AcDbLine
 10
0.0
 20
10.0
 30
0.0
 11
0.0
 21
0.0
 31
0.0
  0
LINE
  5
511
330
504
100
AcDbEntity
  8
3-線
 62
     4
100
AcDbLine
 10
364.0
 20
254.5
 30
0.0
 11
410.0
 21
254.5
 31
0.0
  0
LINE
  5
512
330
504
100
AcDbEntity
  8
3-線
100
AcDbLine
 10
364.0
 20
287.0
 30
0.0
 11
364.0
 21
254.5
 31
0.0
  0
LINE
  5
513
330
504
100
AcDbEntity
  8
3-線
100
AcDbLine
 10
402.0
 20
254.5
 30
0.0
 11
402.0
 21
194.5
 31
0.0
  0
LINE
  5
514
330
504
100
AcDbEntity
  8
3-線
 62
     4
100
AcDbLine
 10
402.0
 20
194.5
 30
0.0
 11
410.0
 21
194.5
 31
0.0
  0
LINE
  5
515
330
504
100
AcDbEntity
  8
3-線
 62
     4
100
AcDbLine
 10
402.0
 20
200.5
 30
0.0
 11
410.0
 21
200.5
 31
0.0
  0
LINE
  5
516
330
504
100
AcDbEntity
  8
3-線
 62
     4
100
AcDbLine
 10
402.0
 20
206.5
 30
0.0
 11
410.0
 21
206.5
 31
0.0
  0
LINE
  5
517
330
504
100
AcDbEntity
  8
3-線
 62
     4
100
AcDbLine
 10
402.0
 20
212.5
 30
0.0
 11
410.0
 21
212.5
 31
0.0
  0
LINE
  5
518
330
504
100
AcDbEntity
  8
3-線
 62
     4
100
AcDbLine
 10
402.0
 20
218.5
 30
0.0
 11
410.0
 21
218.5
 31
0.0
  0
LINE
  5
519
330
504
100
AcDbEntity
  8
3-線
 62
     4
100
AcDbLine
 10
402.0
 20
224.5
 30
0.0
 11
410.0
 21
224.5
 31
0.0
  0
LINE
  5
51A
330
504
100
AcDbEntity
  8
3-線
 62
     4
100
AcDbLine
 10
402.0
 20
230.5
 30
0.0
 11
410.0
 21
230.5
 31
0.0
  0
LINE
  5
51B
330
504
100
AcDbEntity
  8
3-線
 62
     4
100
AcDbLine
 10
402.0
 20
236.5
 30
0.0
 11
410.0
 21
236.5
 31
0.0
  0
LINE
  5
51C
330
504
100
AcDbEntity
  8
3-線
 62
     4
100
AcDbLine
 10
402.0
 20
242.5
 30
0.0
 11
410.0
 21
242.5
 31
0.0
  0
LINE
  5
51D
330
504
100
AcDbEntity
  8
3-線
 62
     4
100
AcDbLine
 10
402.0
 20
248.5
 30
0.0
 11
410.0
 21
248.5
 31
0.0
  0
LINE
  5
51E
330
504
100
AcDbEntity
  8
2-線
100
AcDbLine
 10
370.0
 20
287.0
 30
0.0
 11
370.0
 21
254.5
 31
0.0
  0
LINE
  5
51F
330
504
100
AcDbEntity
  8
2-線
100
AcDbLine
 10
397.8
 20
287.0
 30
0.0
 11
397.8
 21
254.5
 31
0.0
  0
LINE
  5
520
330
504
100
AcDbEntity
  8
2-線
100
AcDbLine
 10
370.0
 20
280.05
 30
0.0
 11
410.0
 21
280.05
 31
0.0
  0
LINE
  5
521
330
504
100
AcDbEntity
  8
2-線
100
AcDbLine
 10
41.0
 20
287.0
 30
0.0
 11
41.0
 21
269.0
 31
0.0
  0
LINE
  5
522
330
504
100
AcDbEntity
  8
2-線
100
AcDbLine
 10
81.0
 20
287.0
 30
0.0
 11
81.0
 21
269.0
 31
0.0
  0
LINE
  5
523
330
504
100
AcDbEntity
  8
2-線
100
AcDbLine
 10
26.0
 20
269.0
 30
0.0
 11
136.0
 21
269.0
 31
0.0
  0
LINE
  5
524
330
504
100
AcDbEntity
  8
2-線
100
AcDbLine
 10
96.0
 20
287.0
 30
0.0
 11
96.0
 21
269.0
 31
0.0
  0
LINE
  5
525
330
504
100
AcDbEntity
  8
2-線
100
AcDbLine
 10
136.0
 20
287.0
 30
0.0
 11
136.0
 21
269.0
 31
0.0
  0
LINE
  5
526
330
504
100
AcDbEntity
  8
2-線
100
AcDbLine
 10
36.0
 20
22.0
 30
0.0
 11
36.0
 21
10.0
 31
0.0
  0
LINE
  5
527
330
504
100
AcDbEntity
  8
2-線
100
AcDbLine
 10
51.0
 20
22.0
 30
0.0
 11
51.0
 21
10.0
 31
0.0
  0
LINE
  5
528
330
504
100
AcDbEntity
  8
2-線
100
AcDbLine
 10
61.0
 20
22.0
 30
0.0
 11
61.0
 21
10.0
 31
0.0
  0
LINE
  5
529
330
504
100
AcDbEntity
  8
2-線
100
AcDbLine
 10
111.0
 20
22.0
 30
0.0
 11
111.0
 21
10.0
 31
0.0
  0
LINE
  5
52A
330
504
100
AcDbEntity
  8
2-線
100
AcDbLine
 10
26.0
 20
16.0
 30
0.0
 11
111.0
 21
16.0
 31
0.0
  0
LINE
  5
52B
330
504
100
AcDbEntity
  8
2-線
100
AcDbLine
 10
26.0
 20
22.0
 30
0.0
 11
111.0
 21
22.0
 31
0.0
  0
LINE
  5
52C
330
504
100
AcDbEntity
  8
2-線
100
AcDbLine
 10
207.0
 20
22.0
 30
0.0
 11
410.0
 21
22.0
 31
0.0
  0
LINE
  5
52D
330
504
100
AcDbEntity
  8
2-線
100
AcDbLine
 10
207.0
 20
34.0
 30
0.0
 11
410.0
 21
34.0
 31
0.0
  0
LINE
  5
52E
330
504
100
AcDbEntity
  8
2-線
100
AcDbLine
 10
247.0
 20
40.0
 30
0.0
 11
410.0
 21
40.0
 31
0.0
  0
LINE
  5
52F
330
504
100
AcDbEntity
  8
2-線
100
AcDbLine
 10
247.0
 20
46.0
 30
0.0
 11
410.0
 21
46.0
 31
0.0
  0
LINE
  5
530
330
504
100
AcDbEntity
  8
2-線
100
AcDbLine
 10
247.0
 20
76.0
 30
0.0
 11
247.0
 21
34.0
 31
0.0
  0
LINE
  5
531
330
504
100
AcDbEntity
  8
2-線
100
AcDbLine
 10
280.0
 20
34.0
 30
0.0
 11
280.0
 21
22.0
 31
0.0
  0
LINE
  5
532
330
504
100
AcDbEntity
  8
2-線
100
AcDbLine
 10
295.0
 20
34.0
 30
0.0
 11
295.0
 21
10.0
 31
0.0
  0
LINE
  5
533
330
504
100
AcDbEntity
  8
2-線
100
AcDbLine
 10
300.0
 20
34.0
 30
0.0
 11
300.0
 21
10.0
 31
0.0
  0
LINE
  5
534
330
504
100
AcDbEntity
  8
2-線
100
AcDbLine
 10
257.0
 20
76.0
 30
0.0
 11
257.0
 21
34.0
 31
0.0
  0
LINE
  5
535
330
504
100
AcDbEntity
  8
2-線
100
AcDbLine
 10
345.0
 20
34.0
 30
0.0
 11
345.0
 21
10.0
 31
0.0
  0
LINE
  5
536
330
504
100
AcDbEntity
  8
2-線
100
AcDbLine
 10
350.0
 20
34.0
 30
0.0
 11
350.0
 21
10.0
 31
0.0
  0
LINE
  5
537
330
504
100
AcDbEntity
  8
2-線
100
AcDbLine
 10
307.0
 20
76.0
 30
0.0
 11
307.0
 21
34.0
 31
0.0
  0
LINE
  5
538
330
504
100
AcDbEntity
  8
2-線
100
AcDbLine
 10
340.0
 20
76.00000000000003
 30
0.0
 11
340.0
 21
34.0
 31
0.0
  0
LINE
  5
539
330
504
100
AcDbEntity
  8
2-線
100
AcDbLine
 10
355.0
 20
76.0
 30
0.0
 11
355.0
 21
34.0
 31
0.0
  0
LINE
  5
53A
330
504
100
AcDbEntity
  8
2-線
100
AcDbLine
 10
375.0
 20
76.00000000000003
 30
0.0
 11
375.0
 21
34.0
 31
0.0
  0
TEXT
  5
53B
330
504
100
AcDbEntity
  8
2-線
100
AcDbText
 10
367.0
 20
285.59
 30
0.0
 40
2.799999999999998
  1
削り加工部一般公差
 41
1.199999999999999
  7
縦
 72
     4
 11
367.0
 21
270.75
 31
0.0
100
AcDbText
  0
TEXT
  5
53C
330
504
100
AcDbEntity
  8
2-線
100
AcDbText
 10
372.676
 20
284.1125000000001
 30
0.0
 40
2.299999999999998
  1
呼び寸法ノ区分
 41
1.199999999999999
 72
     4
 11
383.9
 21
285.2625000000001
 31
0.0
100
AcDbText
  0
TEXT
  5
53D
330
504
100
AcDbEntity
  8
2-線
100
AcDbText
 10
374.424
 20
280.6375
 30
0.0
 40
2.299999999999998
  1
単位　　ｍｍ
 41
1.199999999999999
 72
     4
 11
383.9
 21
281.7875
 31
0.0
100
AcDbText
  0
TEXT
  5
53E
330
504
100
AcDbEntity
  8
2-線
100
AcDbText
 10
401.2166666666665
 20
284.1125000000001
 30
0.0
 40
2.299999999999998
  1
JIS
 72
     4
 11
403.8999999999998
 21
285.2625000000001
 31
0.0
100
AcDbText
  0
TEXT
  5
53F
330
504
100
AcDbEntity
  8
2-線
100
AcDbText
 10
398.7633333333332
 20
280.6375
 30
0.0
 40
2.299999999999998
  1
（中級）
 72
     4
 11
403.8999999999998
 21
281.7875
 31
0.0
100
AcDbText
  0
TEXT
  5
540
330
504
100
AcDbEntity
  8
2-線
100
AcDbText
 10
370.5
 20
255.175
 30
0.0
 40
2.299999999999998
  1
１０００を超え２０００以下
 41
0.75
 11
370.5
 21
256.325
 31
0.0
100
AcDbText
 73
     2
  0
TEXT
  5
541
330
504
100
AcDbEntity
  8
2-線
100
AcDbText
 10
399.2079999999999
 20
255.175
 30
0.0
 40
2.299999999999998
  1
±１．２
 41
0.9
 72
     1
 11
403.8999999999998
 21
256.325
 31
0.0
100
AcDbText
 73
     2
  0
TEXT
  5
542
330
504
100
AcDbEntity
  8
2-線
100
AcDbText
 10
408.75
 20
250.125
 30
0.0
 40
5.5
  1
0
 50
90.0
 72
     4
 11
406.0
 21
251.5
 31
0.0
100
AcDbText
  0
TEXT
  5
543
330
504
100
AcDbEntity
  8
2-線
100
AcDbText
 10
408.75
 20
243.6666666666666
 30
0.0
 40
5.5
  1
9
 50
90.0
 72
     4
 11
406.0
 21
245.5
 31
0.0
100
AcDbText
  0
TEXT
  5
544
330
504
100
AcDbEntity
  8
2-線
100
AcDbText
 10
408.75
 20
237.6666666666666
 30
0.0
 40
5.5
  1
8
 50
90.0
 72
     4
 11
406.0
 21
239.5
 31
0.0
100
AcDbText
  0
TEXT
  5
545
330
504
100
AcDbEntity
  8
2-線
100
AcDbText
 10
408.75
 20
231.6666666666666
 30
0.0
 40
5.5
  1
7
 50
90.0
 72
     4
 11
406.0
 21
233.5
 31
0.0
100
AcDbText
  0
TEXT
  5
546
330
504
100
AcDbEntity
  8
2-線
100
AcDbText
 10
408.75
 20
225.6666666666667
 30
0.0
 40
5.5
  1
6
 50
90.0
 72
     4
 11
406.0
 21
227.5
 31
0.0
100
AcDbText
  0
TEXT
  5
547
330
504
100
AcDbEntity
  8
2-線
100
AcDbText
 10
408.75
 20
219.6666666666667
 30
0.0
 40
5.5
  1
5
 50
90.0
 72
     4
 11
406.0
 21
221.5
 31
0.0
100
AcDbText
  0
TEXT
  5
548
330
504
100
AcDbEntity
  8
2-線
100
AcDbText
 10
408.75
 20
213.6666666666667
 30
0.0
 40
5.5
  1
4
 50
90.0
 72
     4
 11
406.0
 21
215.5
 31
0.0
100
AcDbText
  0
TEXT
  5
549
330
504
100
AcDbEntity
  8
2-線
100
AcDbText
 10
408.75
 20
207.6666666666667
 30
0.0
 40
5.5
  1
3
 50
90.0
 72
     4
 11
406.0
 21
209.5
 31
0.0
100
AcDbText
  0
TEXT
  5
54A
330
504
100
AcDbEntity
  8
2-線
100
AcDbText
 10
408.75
 20
201.6666666666667
 30
0.0
 40
5.5
  1
2
 50
90.0
 72
     4
 11
406.0
 21
203.5
 31
0.0
100
AcDbText
  0
TEXT
  5
54B
330
504
100
AcDbEntity
  8
2-線
100
AcDbText
 10
408.75
 20
196.5833333333333
 30
0.0
 40
5.5
  1
1
 50
90.0
 72
     4
 11
406.0
 21
197.5
 31
0.0
100
AcDbText
  0
TEXT
  5
54C
330
504
100
AcDbEntity
  8
2-線
100
AcDbText
 10
31.63333333333333
 20
280.5000000000001
 30
0.0
 40
4.0
  1
熱
 72
     4
 11
33.5
 21
282.5000000000001
 31
0.0
100
AcDbText
  0
TEXT
  5
54D
330
504
100
AcDbEntity
  8
2-線
100
AcDbText
 10
28.63333333333333
 20
271.5000000000001
 30
0.0
 40
4.0
  1
処
 72
     4
 11
30.5
 21
273.5000000000001
 31
0.0
100
AcDbText
  0
TEXT
  5
54E
330
504
100
AcDbEntity
  8
2-線
100
AcDbText
 10
34.63333333333333
 20
271.6333333333334
 30
0.0
 40
4.0
  1
理
 72
     4
 11
36.5
 21
273.5000000000001
 31
0.0
100
AcDbText
  0
TEXT
  5
54F
330
504
100
AcDbEntity
  8
2-線
100
AcDbText
 10
83.63333333333335
 20
271.5000000000001
 30
0.0
 40
4.0
  1
処
 72
     4
 11
85.5
 21
273.5000000000001
 31
0.0
100
AcDbText
  0
TEXT
  5
550
330
504
100
AcDbEntity
  8
2-線
100
AcDbText
 10
89.63333333333334
 20
271.6333333333334
 30
0.0
 40
4.0
  1
理
 72
     4
 11
91.5
 21
273.5000000000001
 31
0.0
100
AcDbText
  0
TEXT
  5
551
330
504
100
AcDbEntity
  8
2-線
100
AcDbText
 10
83.63333333333335
 20
280.4999999999999
 30
0.0
 40
4.0
  1
表
 72
     4
 11
85.50000000000002
 21
282.4999999999999
 31
0.0
100
AcDbText
  0
TEXT
  5
552
330
504
100
AcDbEntity
  8
2-線
100
AcDbText
 10
89.63333333333338
 20
280.6333333333332
 30
0.0
 40
4.0
  1
面
 72
     4
 11
91.50000000000003
 21
282.4999999999999
 31
0.0
100
AcDbText
  0
TEXT
  5
553
330
504
100
AcDbEntity
  8
2-線
100
AcDbText
 10
27.8
 20
11.5
 30
0.0
 40
3.0
  1
符号
 72
     4
 11
31.0
 21
13.0
 31
0.0
100
AcDbText
  0
TEXT
  5
554
330
504
100
AcDbEntity
  8
2-線
100
AcDbText
 10
38.7
 20
11.5
 30
0.0
 40
3.0
  1
年月日
 72
     4
 11
43.5
 21
13.0
 31
0.0
100
AcDbText
  0
TEXT
  5
555
330
504
100
AcDbEntity
  8
2-線
100
AcDbText
 10
52.9
 20
11.5
 30
0.0
 40
3.0
  1
担当
 72
     4
 11
56.0
 21
13.0
 31
0.0
100
AcDbText
  0
TEXT
  5
556
330
504
100
AcDbEntity
  8
2-線
100
AcDbText
 10
73.79999999999999
 20
11.5
 30
0.0
 40
3.0
  1
改　正　記　事
 72
     4
 11
86.0
 21
13.0
 31
0.0
100
AcDbText
  0
TEXT
  5
557
330
504
100
AcDbEntity
  8
3-線
100
AcDbText
 10
213.4333333333334
 20
12.5
 30
0.0
 40
7.0
  1
協和工業株式会社
 41
1.149999999999999
 72
     4
 11
251.0
 21
16.0
 31
0.0
100
AcDbText
  0
TEXT
  5
558
330
504
100
AcDbEntity
  8
2-線
100
AcDbText
 10
248.08
 20
29.6
 30
0.0
 40
3.0
  1
Ｍ．Ｙ
 41
0.8
 72
     4
 11
252.0
 21
31.0
 31
0.0
100
AcDbText
  0
TEXT
  5
559
330
504
100
AcDbEntity
  8
2-線
100
AcDbText
 10
246.56
 20
23.6
 30
0.0
 40
3.0
  1
０１，０８，０１
 41
0.4
 72
     4
 11
252.0
 21
25.0
 31
0.0
100
AcDbText
  0
TEXT
  5
55A
330
504
100
AcDbEntity
  8
2-線
100
AcDbText
 10
265.8
 20
26.0
 30
0.0
 40
4.0
  1
1:1
 41
1.199999999999999
 72
     4
 11
269.0
 21
28.0
 31
0.0
100
AcDbText
  0
TEXT
  5
55B
330
504
100
AcDbEntity
  8
2-線
100
AcDbText
 10
282.5
 20
26.5
 30
0.0
 40
3.0
  1
三角法
 72
     4
 11
287.5
 21
28.0
 31
0.0
100
AcDbText
  0
TEXT
  5
55C
330
504
100
AcDbEntity
  8
2-線
100
AcDbText
 10
247.9
 20
35.6
 30
0.0
 40
3.0
  1
Ｎｏ．
 72
     4
 11
252.0
 21
37.0
 31
0.0
100
AcDbText
  0
LINE
  5
55D
330
504
100
AcDbEntity
  8
2-線
100
AcDbLine
 10
275.0
 20
34.0
 30
0.0
 11
275.0
 21
22.0
 31
0.0
  0
LINE
  5
55E
330
504
100
AcDbEntity
  8
2-線
100
AcDbLine
 10
263.0
 20
34.0
 30
0.0
 11
263.0
 21
22.0
 31
0.0
  0
LINE
  5
55F
330
504
100
AcDbEntity
  8
2-線
100
AcDbLine
 10
258.0
 20
34.0
 30
0.0
 11
258.0
 21
22.0
 31
0.0
  0
LINE
  5
560
330
504
100
AcDbEntity
  8
2-線
100
AcDbLine
 10
246.0
 20
34.0
 30
0.0
 11
246.0
 21
22.0
 31
0.0
  0
LINE
  5
561
330
504
100
AcDbEntity
  8
2-線
100
AcDbLine
 10
241.0
 20
34.0
 30
0.0
 11
241.0
 21
22.0
 31
0.0
  0
LINE
  5
562
330
504
100
AcDbEntity
  8
2-線
100
AcDbLine
 10
229.0
 20
34.0
 30
0.0
 11
229.0
 21
22.0
 31
0.0
  0
LINE
  5
563
330
504
100
AcDbEntity
  8
2-線
100
AcDbLine
 10
224.0
 20
34.0
 30
0.0
 11
224.0
 21
22.0
 31
0.0
  0
LINE
  5
564
330
504
100
AcDbEntity
  8
2-線
100
AcDbLine
 10
212.0
 20
34.0
 30
0.0
 11
212.0
 21
22.0
 31
0.0
  0
LINE
  5
565
330
504
100
AcDbEntity
  8
2-線
100
AcDbLine
 10
207.0
 20
34.0
 30
0.0
 11
207.0
 21
10.0
 31
0.0
  0
TEXT
  5
566
330
504
100
AcDbEntity
  8
2-線
100
AcDbText
 10
302.0
 20
26.25
 30
0.0
 40
3.5
  1
  トキコ（株）   殿
 11
302.0
 21
28.0
 31
0.0
100
AcDbText
 73
     2
  0
TEXT
  5
567
330
504
100
AcDbEntity
  8
2-線
100
AcDbText
 10
273.3
 20
35.5
 30
0.0
 40
3.0
  1
図　　　番
 72
     4
 11
282.0
 21
37.0
 31
0.0
100
AcDbText
  0
TEXT
  5
568
330
504
100
AcDbEntity
  8
2-線
100
AcDbText
 10
316.8
 20
35.5
 30
0.0
 40
3.0
  1
品　　名
 72
     4
 11
323.5
 21
37.0
 31
0.0
100
AcDbText
  0
TEXT
  5
569
330
504
100
AcDbEntity
  8
2-線
100
AcDbText
 10
344.3
 20
35.5
 30
0.0
 40
3.0
  1
個数
 72
     4
 11
347.5
 21
37.0
 31
0.0
100
AcDbText
  0
TEXT
  5
56A
330
504
100
AcDbEntity
  8
2-線
100
AcDbText
 10
360.0
 20
35.5
 30
0.0
 40
3.0
  1
材　質
 72
     4
 11
365.0
 21
37.0
 31
0.0
100
AcDbText
  0
TEXT
  5
56B
330
504
100
AcDbEntity
  8
2-線
100
AcDbText
 10
383.9
 20
35.5
 30
0.0
 40
3.0
  1
備　　　考
 72
     4
 11
392.5
 21
37.0
 31
0.0
100
AcDbText
  0
TEXT
  5
56C
330
504
100
AcDbEntity
  8
2-線
100
AcDbText
 10
352.0
 20
29.25
 30
0.0
 40
3.5
  1
 ８型　中間軸付き
 11
352.0
 21
31.0
 31
0.0
100
AcDbText
 73
     2
  0
TEXT
  5
56D
330
504
100
AcDbEntity
  8
2-線
100
AcDbText
 10
352.0
 20
23.25
 30
0.0
 40
3.5
  1
ユニバーサル･ジョイント
 11
352.0
 21
25.0
 31
0.0
100
AcDbText
 73
     2
  0
TEXT
  5
56E
330
504
100
AcDbEntity
  8
2-線
100
AcDbText
 10
352.0
 20
14.0
 30
0.0
 40
4.0
  1
ＳＰ－０８－００Ｃ－００
 41
0.85
 11
352.0
 21
16.0
 31
0.0
100
AcDbText
 73
     2
  0
TEXT
  5
56F
330
504
100
AcDbEntity
  8
2-線
100
AcDbText
 10
340.6
 20
41.5
 30
0.0
 40
3.0
  1
１ｓｅｔ
 72
     4
 11
347.5
 21
43.0
 31
0.0
100
AcDbText
  0
TEXT
  5
570
330
504
100
AcDbEntity
  8
2-線
100
AcDbText
 10
250.7
 20
41.5
 30
0.0
 40
3.0
  1
１
 72
     4
 11
252.0
 21
43.0
 31
0.0
100
AcDbText
  0
TEXT
  5
571
330
504
100
AcDbEntity
  8
2-線
100
AcDbText
 10
259.0
 20
41.5
 30
0.0
 40
3.0
  1
ＳＣ－０８－００Ｃ
 41
0.9
 11
259.0
 21
43.0
 31
0.0
100
AcDbText
 73
     2
  0
TEXT
  5
572
330
504
100
AcDbEntity
  8
2-線
100
AcDbText
 10
309.0
 20
41.5
 30
0.0
 40
3.0
  1
Ｕ．ジョイント
 41
0.9
 11
309.0
 21
43.0
 31
0.0
100
AcDbText
 73
     2
  0
TEXT
  5
573
330
504
100
AcDbEntity
  8
2-線
100
AcDbText
 10
357.0
 20
41.5
 30
0.0
 40
3.0
  1
ＳＣＭ４１５
 41
0.8
 11
357.0
 21
43.0
 31
0.0
100
AcDbText
 73
     2
  0
TEXT
  5
574
330
504
100
AcDbEntity
  8
2-線
100
AcDbText
 10
377.0
 20
41.5
 30
0.0
 40
3.0
  1
浸炭焼き入れ
 11
377.0
 21
43.0
 31
0.0
100
AcDbText
 73
     2
  0
TEXT
  5
575
330
504
100
AcDbEntity
  8
2-線
100
AcDbText
 10
277.5
 20
32.76
 30
0.0
 40
2.799999999999998
  1
投影法
 41
0.9
  7
縦
 72
     4
 11
277.5
 21
28.0
 31
0.0
100
AcDbText
  0
TEXT
  5
576
330
504
100
AcDbEntity
  8
2-線
100
AcDbText
 10
226.5
 20
32.76
 30
0.0
 40
2.799999999999998
  1
検　図
 41
0.9
  7
縦
 72
     4
 11
226.5
 21
28.0
 31
0.0
100
AcDbText
  0
TEXT
  5
577
330
504
100
AcDbEntity
  8
2-線
100
AcDbText
 10
243.5
 20
32.76
 30
0.0
 40
2.799999999999998
  1
製　図
 41
0.9
  7
縦
 72
     4
 11
243.5
 21
28.0
 31
0.0
100
AcDbText
  0
TEXT
  5
578
330
504
100
AcDbEntity
  8
2-線
100
AcDbText
 10
260.5
 20
32.85333333333333
 30
0.0
 40
2.799999999999998
  1
尺　度
 41
0.9
  7
縦
 72
     4
 11
260.5
 21
28.0
 31
0.0
100
AcDbText
  0
TEXT
  5
579
330
504
100
AcDbEntity
  8
2-線
100
AcDbText
 10
297.5
 20
32.76
 30
0.0
 40
2.799999999999998
  1
客　先
 41
0.9
  7
縦
 72
     4
 11
297.5
 21
28.0
 31
0.0
100
AcDbText
  0
TEXT
  5
57A
330
504
100
AcDbEntity
  8
2-線
100
AcDbText
 10
297.5
 20
20.76
 30
0.0
 40
2.799999999999998
  1
整　番
 41
0.9
  7
縦
 72
     4
 11
297.5
 21
16.0
 31
0.0
100
AcDbText
  0
TEXT
  5
57B
330
504
100
AcDbEntity
  8
2-線
100
AcDbText
 10
347.5
 20
32.76
 30
0.0
 40
2.799999999999998
  1
名　称
 41
0.9
  7
縦
 72
     4
 11
347.5
 21
28.0
 31
0.0
100
AcDbText
  0
TEXT
  5
57C
330
504
100
AcDbEntity
  8
2-線
100
AcDbText
 10
347.5
 20
20.85333333333333
 30
0.0
 40
2.799999999999998
  1
図　番
 41
0.9
  7
縦
 72
     4
 11
347.5
 21
16.0
 31
0.0
100
AcDbText
  0
TEXT
  5
57D
330
504
100
AcDbEntity
  8
2-線
100
AcDbText
 10
209.5
 20
32.76
 30
0.0
 40
2.799999999999998
  1
認　可
 41
0.9
  7
縦
 72
     4
 11
209.5
 21
28.0
 31
0.0
100
AcDbText
  0
LINE
  5
57E
330
504
100
AcDbEntity
  8
2-線
100
AcDbLine
 10
370.0
 20
283.525
 30
0.0
 11
410.0
 21
283.525
 31
0.0
  0
TEXT
  5
57F
330
504
100
AcDbEntity
  8
2-線
100
AcDbText
 10
399.2079999999999
 20
258.825
 30
0.0
 40
2.299999999999998
  1
±０．８
 41
0.9
 72
     1
 11
403.8999999999998
 21
259.975
 31
0.0
100
AcDbText
 73
     2
  0
TEXT
  5
580
330
504
100
AcDbEntity
  8
2-線
100
AcDbText
 10
399.2079999999999
 20
262.475
 30
0.0
 40
2.299999999999998
  1
±０．５
 41
0.9
 72
     1
 11
403.8999999999998
 21
263.6249999999999
 31
0.0
100
AcDbText
 73
     2
  0
TEXT
  5
581
330
504
100
AcDbEntity
  8
2-線
100
AcDbText
 10
399.2079999999999
 20
266.1249999999999
 30
0.0
 40
2.299999999999998
  1
±０．３
 41
0.9
 72
     1
 11
403.8999999999998
 21
267.2749999999999
 31
0.0
100
AcDbText
 73
     2
  0
TEXT
  5
582
330
504
100
AcDbEntity
  8
2-線
100
AcDbText
 10
399.2079999999999
 20
269.7749999999999
 30
0.0
 40
2.299999999999998
  1
±０．２
 41
0.9
 72
     1
 11
403.8999999999998
 21
270.9249999999999
 31
0.0
100
AcDbText
 73
     2
  0
TEXT
  5
583
330
504
100
AcDbEntity
  8
2-線
100
AcDbText
 10
399.4839999999999
 20
273.4249999999999
 30
0.0
 40
2.299999999999998
  1
±０．１
 41
0.9
 72
     1
 11
403.8999999999998
 21
274.5749999999999
 31
0.0
100
AcDbText
 73
     2
  0
TEXT
  5
584
330
504
100
AcDbEntity
  8
2-線
100
AcDbText
 10
399.4839999999999
 20
277.0749999999999
 30
0.0
 40
2.299999999999998
  1
±０．１
 41
0.9
 72
     1
 11
403.8999999999998
 21
278.2249999999999
 31
0.0
100
AcDbText
 73
     2
  0
TEXT
  5
585
330
504
100
AcDbEntity
  8
2-線
100
AcDbText
 10
370.5
 20
258.825
 30
0.0
 40
2.299999999999998
  1
　３１５を超え１０００以下
 41
0.75
 11
370.5
 21
259.975
 31
0.0
100
AcDbText
 73
     2
  0
TEXT
  5
586
330
504
100
AcDbEntity
  8
2-線
100
AcDbText
 10
370.5
 20
262.475
 30
0.0
 40
2.299999999999998
  1
　１２０を超え　３１５以下
 41
0.75
 11
370.5
 21
263.6249999999999
 31
0.0
100
AcDbText
 73
     2
  0
TEXT
  5
587
330
504
100
AcDbEntity
  8
2-線
100
AcDbText
 10
370.5
 20
266.1249999999999
 30
0.0
 40
2.299999999999998
  1
　　３０を超え　１２０以下
 41
0.75
 11
370.5
 21
267.2749999999999
 31
0.0
100
AcDbText
 73
     2
  0
TEXT
  5
588
330
504
100
AcDbEntity
  8
2-線
100
AcDbText
 10
370.5
 20
269.7749999999999
 30
0.0
 40
2.299999999999998
  1
　　　６を超え　　３０以下
 41
0.75
 11
370.5
 21
270.9249999999999
 31
0.0
100
AcDbText
 73
     2
  0
TEXT
  5
589
330
504
100
AcDbEntity
  8
2-線
100
AcDbText
 10
370.5
 20
273.4249999999999
 30
0.0
 40
2.299999999999998
  1
　　　３を超え　　　６以下
 41
0.75
 11
370.5
 21
274.5749999999999
 31
0.0
100
AcDbText
 73
     2
  0
TEXT
  5
58A
330
504
100
AcDbEntity
  8
2-線
100
AcDbText
 10
370.5
 20
277.0749999999999
 30
0.0
 40
2.299999999999998
  1
  ０．５を超え　　　３以下
 41
0.75
 11
370.5
 21
278.2249999999999
 31
0.0
100
AcDbText
 73
     2
  0
LINE
  5
58B
330
504
100
AcDbEntity
  8
2-線
100
AcDbLine
 10
247.0
 20
52.0
 30
0.0
 11
410.0
 21
52.0
 31
0.0
  0
TEXT
  5
58C
330
504
100
AcDbEntity
  8
2-線
100
AcDbText
 10
259.0
 20
47.5
 30
0.0
 40
3.0
  1
ＳＣ－０８－００Ｃ
 41
0.9
 11
259.0
 21
49.0
 31
0.0
100
AcDbText
 73
     2
  0
TEXT
  5
58D
330
504
100
AcDbEntity
  8
2-線
100
AcDbText
 10
250.6
 20
47.5
 30
0.0
 40
3.0
  1
２
 72
     4
 11
252.0
 21
49.0
 31
0.0
100
AcDbText
  0
TEXT
  5
58E
330
504
100
AcDbEntity
  8
2-線
100
AcDbText
 10
309.0
 20
47.5
 30
0.0
 40
3.0
  1
Ｕ．ジョイント
 41
0.9
 11
309.0
 21
49.0
 31
0.0
100
AcDbText
 73
     2
  0
TEXT
  5
58F
330
504
100
AcDbEntity
  8
2-線
100
AcDbText
 10
357.0
 20
47.5
 30
0.0
 40
3.0
  1
ＳＣＭ４１５
 41
0.8
 11
357.0
 21
49.0
 31
0.0
100
AcDbText
 73
     2
  0
TEXT
  5
590
330
504
100
AcDbEntity
  8
2-線
100
AcDbText
 10
340.6
 20
47.5
 30
0.0
 40
3.0
  1
１ｓｅｔ
 72
     4
 11
347.5
 21
49.0
 31
0.0
100
AcDbText
  0
TEXT
  5
591
330
504
100
AcDbEntity
  8
2-線
100
AcDbText
 10
377.0
 20
47.5
 30
0.0
 40
3.0
  1
浸炭焼き入れ
 11
377.0
 21
49.0
 31
0.0
100
AcDbText
 73
     2
  0
LINE
  5
592
330
504
100
AcDbEntity
  8
2-線
100
AcDbLine
 10
247.0
 20
58.0
 30
0.0
 11
410.0
 21
58.0
 31
0.0
  0
TEXT
  5
593
330
504
100
AcDbEntity
  8
2-線
100
AcDbText
 10
259.0
 20
53.5
 30
0.0
 40
3.0
  1
ＬＩＶ１０－００－０００
 41
0.9
 11
259.0
 21
55.0
 31
0.0
100
AcDbText
 73
     2
  0
TEXT
  5
594
330
504
100
AcDbEntity
  8
2-線
100
AcDbText
 10
250.6
 20
53.5
 30
0.0
 40
3.0
  1
３
 72
     4
 11
252.0
 21
55.0
 31
0.0
100
AcDbText
  0
TEXT
  5
595
330
504
100
AcDbEntity
  8
2-線
100
AcDbText
 10
309.0
 20
53.5
 30
0.0
 40
3.0
  1
スリーブ
 11
309.0
 21
55.0
 31
0.0
100
AcDbText
 73
     2
  0
TEXT
  5
596
330
504
100
AcDbEntity
  8
2-線
100
AcDbText
 10
357.0
 20
53.5
 30
0.0
 40
3.0
  1
Ｓ４５Ｃ
 41
0.8
 11
357.0
 21
55.0
 31
0.0
100
AcDbText
 73
     2
  0
TEXT
  5
597
330
504
100
AcDbEntity
  8
2-線
100
AcDbText
 10
346.2
 20
53.5
 30
0.0
 40
3.0
  1
１
 72
     4
 11
347.5
 21
55.0
 31
0.0
100
AcDbText
  0
LINE
  5
598
330
504
100
AcDbEntity
  8
2-線
100
AcDbLine
 10
247.0
 20
64.0
 30
0.0
 11
410.0
 21
64.0
 31
0.0
  0
TEXT
  5
599
330
504
100
AcDbEntity
  8
2-線
100
AcDbText
 10
259.0
 20
59.5
 30
0.0
 40
3.0
  1
ＬＩＳ１０－ＳＳ－００１
 41
0.9
 11
259.0
 21
61.0
 31
0.0
100
AcDbText
 73
     2
  0
TEXT
  5
59A
330
504
100
AcDbEntity
  8
2-線
100
AcDbText
 10
250.6
 20
59.5
 30
0.0
 40
3.0
  1
４
 72
     4
 11
252.0
 21
61.0
 31
0.0
100
AcDbText
  0
TEXT
  5
59B
330
504
100
AcDbEntity
  8
2-線
100
AcDbText
 10
309.0
 20
59.5
 30
0.0
 40
3.0
  1
スプライン軸
 41
0.9
 11
309.0
 21
61.0
 31
0.0
100
AcDbText
 73
     2
  0
TEXT
  5
59C
330
504
100
AcDbEntity
  8
2-線
100
AcDbText
 10
357.0
 20
59.5
 30
0.0
 40
3.0
  1
ＳＫ４
 41
0.8
 11
357.0
 21
61.0
 31
0.0
100
AcDbText
 73
     2
  0
TEXT
  5
59D
330
504
100
AcDbEntity
  8
2-線
100
AcDbText
 10
346.2
 20
59.5
 30
0.0
 40
3.0
  1
１
 72
     4
 11
347.5
 21
61.0
 31
0.0
100
AcDbText
  0
LINE
  5
59E
330
504
100
AcDbEntity
  8
2-線
100
AcDbLine
 10
247.0
 20
70.0
 30
0.0
 11
410.0
 21
70.0
 31
0.0
  0
TEXT
  5
59F
330
504
100
AcDbEntity
  8
2-線
100
AcDbText
 10
259.0
 20
65.5
 30
0.0
 40
3.0
  1
ＬＬＰ０８－００－０００
 41
0.9
 11
259.0
 21
67.0
 31
0.0
100
AcDbText
 73
     2
  0
TEXT
  5
5A0
330
504
100
AcDbEntity
  8
2-線
100
AcDbText
 10
250.5
 20
65.5
 30
0.0
 40
3.0
  1
５
 72
     4
 11
252.0
 21
67.0
 31
0.0
100
AcDbText
  0
TEXT
  5
5A1
330
504
100
AcDbEntity
  8
2-線
100
AcDbText
 10
309.0
 20
65.5
 30
0.0
 40
3.0
  1
連結軸
 41
0.9
 11
309.0
 21
67.0
 31
0.0
100
AcDbText
 73
     2
  0
TEXT
  5
5A2
330
504
100
AcDbEntity
  8
2-線
100
AcDbText
 10
357.0
 20
65.5
 30
0.0
 40
3.0
  1
ＳＫ４
 41
0.8
 11
357.0
 21
67.0
 31
0.0
100
AcDbText
 73
     2
  0
TEXT
  5
5A3
330
504
100
AcDbEntity
  8
2-線
100
AcDbText
 10
346.2
 20
65.5
 30
0.0
 40
3.0
  1
１
 72
     4
 11
347.5
 21
67.0
 31
0.0
100
AcDbText
  0
LINE
  5
5A4
330
504
100
AcDbEntity
  8
2-線
100
AcDbLine
 10
247.0
 20
76.0
 30
0.0
 11
410.0
 21
76.0
 31
0.0
  0
TEXT
  5
5A5
330
504
100
AcDbEntity
  8
2-線
100
AcDbText
 10
259.0
 20
71.5
 30
0.0
 40
3.0
  1
ＥＳＰ０５－１８
 41
0.9
 11
259.0
 21
73.0
 31
0.0
100
AcDbText
 73
     2
  0
TEXT
  5
5A6
330
504
100
AcDbEntity
  8
2-線
100
AcDbText
 10
250.6
 20
71.5
 30
0.0
 40
3.0
  1
６
 72
     4
 11
252.0
 21
73.0
 31
0.0
100
AcDbText
  0
TEXT
  5
5A7
330
504
100
AcDbEntity
  8
2-線
100
AcDbText
 10
309.0
 20
71.5
 30
0.0
 40
3.0
  1
平行ピン
 41
0.9
 11
309.0
 21
73.0
 31
0.0
100
AcDbText
 73
     2
  0
TEXT
  5
5A8
330
504
100
AcDbEntity
  8
2-線
100
AcDbText
 10
357.0
 20
71.5
 30
0.0
 40
3.0
  1
市販品
 41
0.8
 11
357.0
 21
73.0
 31
0.0
100
AcDbText
 73
     2
  0
TEXT
  5
5A9
330
504
100
AcDbEntity
  8
2-線
100
AcDbText
 10
346.2
 20
71.5
 30
0.0
 40
3.0
  1
１
 72
     4
 11
347.5
 21
73.0
 31
0.0
100
AcDbText
  0
ENDBLK
  5
5AB
330
504
100
AcDbEntity
  8
0
100
AcDbBlockEnd
  0
BLOCK
  5
1BFF
330
1BF1
100
AcDbEntity
  8
0
100
AcDbBlockBegin
  2
A$C313832AB
 70
     0
 10
0.0
 20
0.0
 30
0.0
  3
A$C313832AB
  1

  0
LINE
  5
1BF2
330
1BF1
100
AcDbEntity
  8
1-線
100
AcDbLine
 10
0.0
 20
0.0
 30
0.0
 11
20.0
 21
0.0
 31
0.0
  0
LINE
  5
1BF3
330
1BF1
100
AcDbEntity
  8
1-線
100
AcDbLine
 10
0.0
 20
5.0
 30
0.0
 11
20.0
 21
5.0
 31
0.0
  0
LINE
  5
1BF4
330
1BF1
100
AcDbEntity
  8
1-線
100
AcDbLine
 10
0.0
 20
10.0
 30
0.0
 11
20.0
 21
10.0
 31
0.0
  0
LINE
  5
1BF5
330
1BF1
100
AcDbEntity
  8
1-線
100
AcDbLine
 10
0.0
 20
30.0
 30
0.0
 11
20.0
 21
30.0
 31
0.0
  0
LINE
  5
1BF6
330
1BF1
100
AcDbEntity
  8
1-線
100
AcDbLine
 10
5.0
 20
15.0
 30
0.0
 11
15.0
 21
15.0
 31
0.0
  0
LINE
  5
1BF7
330
1BF1
100
AcDbEntity
  8
1-線
100
AcDbLine
 10
5.0
 20
25.0
 30
0.0
 11
15.0
 21
25.0
 31
0.0
  0
LINE
  5
1BF8
330
1BF1
100
AcDbEntity
  8
1-線
100
AcDbLine
 10
0.0
 20
30.0
 30
0.0
 11
0.0
 21
0.0
 31
0.0
  0
LINE
  5
1BF9
330
1BF1
100
AcDbEntity
  8
1-線
100
AcDbLine
 10
10.0
 20
25.0
 30
0.0
 11
10.0
 21
15.0
 31
0.0
  0
LINE
  5
1BFA
330
1BF1
100
AcDbEntity
  8
1-線
100
AcDbLine
 10
5.0
 20
30.0
 30
0.0
 11
5.0
 21
10.0
 31
0.0
  0
LINE
  5
1BFB
330
1BF1
100
AcDbEntity
  8
1-線
100
AcDbLine
 10
0.0
 20
20.0
 30
0.0
 11
5.0
 21
20.0
 31
0.0
  0
LINE
  5
1BFC
330
1BF1
100
AcDbEntity
  8
1-線
100
AcDbLine
 10
20.0
 20
30.0
 30
0.0
 11
20.0
 21
0.0
 31
0.0
  0
LINE
  5
1BFD
330
1BF1
100
AcDbEntity
  8
1-線
100
AcDbLine
 10
15.0
 20
30.0
 30
0.0
 11
15.0
 21
10.0
 31
0.0
  0
LINE
  5
1BFE
330
1BF1
100
AcDbEntity
  8
1-線
100
AcDbLine
 10
15.0
 20
20.0
 30
0.0
 11
20.0
 21
20.0
 31
0.0
  0
ENDBLK
  5
1C00
330
1BF1
100
AcDbEntity
  8
0
100
AcDbBlockEnd
  0
BLOCK
  5
1F6C
330
1F5E
100
AcDbEntity
  8
0
100
AcDbBlockBegin
  2
A$C1D0B0400
 70
     0
 10
0.0
 20
0.0
 30
0.0
  3
A$C1D0B0400
  1

  0
LINE
  5
1F5F
330
1F5E
100
AcDbEntity
  8
1-1点
100
AcDbLine
 10
0.0
 20
-15.0
 30
0.0
 11
0.0
 21
15.0
 31
0.0
  0
CIRCLE
  5
1F60
330
1F5E
100
AcDbEntity
  8
3-線
100
AcDbCircle
 10
0.0
 20
0.0
 30
0.0
 40
11.5
  0
CIRCLE
  5
1F61
330
1F5E
100
AcDbEntity
  8
3-線
100
AcDbCircle
 10
0.0
 20
0.0
 30
0.0
 40
6.0
  0
CIRCLE
  5
1F62
330
1F5E
100
AcDbEntity
  8
3-線
100
AcDbCircle
 10
0.0
 20
0.0
 30
0.0
 40
7.0
  0
LINE
  5
1F63
330
1F5E
100
AcDbEntity
  8
3-線
100
AcDbLine
 10
-4.499999999999943
 20
2.0
 30
0.0
 11
-5.656854249492369
 21
2.0
 31
0.0
  0
LINE
  5
1F64
330
1F5E
100
AcDbEntity
  8
3-線
100
AcDbLine
 10
-4.499999999999943
 20
-2.0
 30
0.0
 11
-5.656854249492369
 21
-2.0
 31
0.0
  0
LINE
  5
1F65
330
1F5E
100
AcDbEntity
  8
1-1点
100
AcDbLine
 10
-15.0
 20
0.0
 30
0.0
 11
15.0
 21
0.0
 31
0.0
  0
LINE
  5
1F66
330
1F5E
100
AcDbEntity
  8
3-線
100
AcDbLine
 10
5.454356057317851
 20
-2.5
 30
0.0
 11
-4.000000000000055
 21
-2.499999999999943
 31
0.0
  0
LINE
  5
1F67
330
1F5E
100
AcDbEntity
  8
3-線
100
AcDbLine
 10
5.454356057317851
 20
2.5
 30
0.0
 11
-3.999999999999828
 21
2.500000000000055
 31
0.0
  0
LINE
  5
1F68
330
1F5E
100
AcDbEntity
  8
3-線
100
AcDbLine
 10
-3.999999999999943
 20
2.499999999999943
 30
0.0
 11
-3.999999999999943
 21
-2.500000000000055
 31
0.0
  0
LINE
  5
1F69
330
1F5E
100
AcDbEntity
  8
3-線
100
AcDbLine
 10
-4.499999999999943
 20
2.000000000000055
 30
0.0
 11
-4.499999999999943
 21
-1.999999999999943
 31
0.0
  0
LINE
  5
1F6A
330
1F5E
100
AcDbEntity
  8
3-線
100
AcDbLine
 10
-3.999999999999943
 20
2.499999999999943
 30
0.0
 11
-4.499999999999943
 21
2.0
 31
0.0
  0
LINE
  5
1F6B
330
1F5E
100
AcDbEntity
  8
3-線
100
AcDbLine
 10
-4.499999999999943
 20
-2.0
 30
0.0
 11
-3.999999999999943
 21
-2.500000000000055
 31
0.0
  0
ENDBLK
  5
1F6D
330
1F5E
100
AcDbEntity
  8
0
100
AcDbBlockEnd
  0
BLOCK
  5
28F8
330
28EE
100
AcDbEntity
  8
0
100
AcDbBlockBegin
  2
*D6
 70
     1
 10
0.0
 20
0.0
 30
0.0
  3
*D6
  1

  0
LINE
  5
4FD8
330
28EE
100
AcDbEntity
  8
1-線
 62
     0
370
    -2
100
AcDbLine
 10
169.4999999999999
 20
216.7499999999999
 30
0.0
 11
143.0
 21
216.7499999999999
 31
0.0
  0
LINE
  5
4FD9
330
28EE
100
AcDbEntity
  8
1-線
 62
     0
370
    -2
100
AcDbLine
 10
169.5000000000002
 20
175.2499999999999
 30
0.0
 11
143.0
 21
175.2499999999999
 31
0.0
  0
LINE
  5
4FDA
330
28EE
100
AcDbEntity
  8
1-線
 62
     0
370
    -2
100
AcDbLine
 10
144.0
 20
214.25
 30
0.0
 11
144.0
 21
177.7499999999999
 31
0.0
  0
INSERT
  5
4FDB
330
28EE
100
AcDbEntity
  8
1-線
 62
     0
370
    -2
100
AcDbBlockReference
  2
_Open30
 10
144.0
 20
216.7499999999999
 30
0.0
 41
2.5
 42
2.5
 43
2.5
 50
90.0
  0
INSERT
  5
4FDC
330
28EE
100
AcDbEntity
  8
1-線
 62
     0
370
    -2
100
AcDbBlockReference
  2
_Open30
 10
144.0
 20
175.2499999999999
 30
0.0
 41
2.5
 42
2.5
 43
2.5
 50
270.0
  0
MTEXT
  5
4FDD
330
28EE
100
AcDbEntity
  8
1-線
 62
     0
100
AcDbMText
 10
141.5
 20
195.9999999999999
 30
0.0
 40
3.0
 41
0.0
 71
     5
 72
     1
  1
%%c83
 11
0.0000000000000001
 21
1.0
 31
0.0
 73
     1
 44
1.0
  0
POINT
  5
4FDE
330
28EE
100
AcDbEntity
  8
Defpoints
 62
     0
100
AcDbPoint
 10
169.4999999999999
 20
216.7499999999999
 30
0.0
  0
POINT
  5
4FDF
330
28EE
100
AcDbEntity
  8
Defpoints
 62
     0
100
AcDbPoint
 10
169.5000000000002
 20
175.2499999999999
 30
0.0
  0
POINT
  5
4FE0
330
28EE
100
AcDbEntity
  8
Defpoints
 62
     0
100
AcDbPoint
 10
144.0
 20
175.2499999999999
 30
0.0
  0
ENDBLK
  5
28F9
330
28EE
100
AcDbEntity
  8
0
100
AcDbBlockEnd
  0
BLOCK
  5
2977
330
296D
100
AcDbEntity
  8
0
100
AcDbBlockBegin
  2
*D7
 70
     1
 10
0.0
 20
0.0
 30
0.0
  3
*D7
  1

  0
LINE
  5
4FFC
330
296D
100
AcDbEntity
  8
1-線
 62
     0
370
    -2
100
AcDbLine
 10
262.5049999999999
 20
216.7499999999999
 30
0.0
 11
293.0688471154598
 21
216.7499999999999
 31
0.0
  0
LINE
  5
4FFD
330
296D
100
AcDbEntity
  8
1-線
 62
     0
370
    -2
100
AcDbLine
 10
262.5050000000003
 20
175.2500000000001
 30
0.0
 11
293.0688471154598
 21
175.2500000000001
 31
0.0
  0
LINE
  5
4FFE
330
296D
100
AcDbEntity
  8
1-線
 62
     0
370
    -2
100
AcDbLine
 10
292.0688471154599
 20
214.25
 30
0.0
 11
292.0688471154599
 21
177.7500000000001
 31
0.0
  0
INSERT
  5
4FFF
330
296D
100
AcDbEntity
  8
1-線
 62
     0
370
    -2
100
AcDbBlockReference
  2
_Open30
 10
292.0688471154599
 20
216.7499999999999
 30
0.0
 41
2.5
 42
2.5
 43
2.5
 50
90.0
  0
INSERT
  5
5000
330
296D
100
AcDbEntity
  8
1-線
 62
     0
370
    -2
100
AcDbBlockReference
  2
_Open30
 10
292.0688471154599
 20
175.2500000000001
 30
0.0
 41
2.5
 42
2.5
 43
2.5
 50
270.0
  0
MTEXT
  5
5001
330
296D
100
AcDbEntity
  8
1-線
 62
     0
100
AcDbMText
 10
289.5688471154599
 20
196.0
 30
0.0
 40
3.0
 41
0.0
 71
     5
 72
     1
  1
%%c83
 11
0.0000000000000001
 21
1.0
 31
0.0
 73
     1
 44
1.0
  0
POINT
  5
5002
330
296D
100
AcDbEntity
  8
Defpoints
 62
     0
100
AcDbPoint
 10
262.5049999999999
 20
216.7499999999999
 30
0.0
  0
POINT
  5
5003
330
296D
100
AcDbEntity
  8
Defpoints
 62
     0
100
AcDbPoint
 10
262.5050000000003
 20
175.2500000000001
 30
0.0
  0
POINT
  5
5004
330
296D
100
AcDbEntity
  8
Defpoints
 62
     0
100
AcDbPoint
 10
292.0688471154599
 20
175.2500000000001
 30
0.0
  0
ENDBLK
  5
2978
330
296D
100
AcDbEntity
  8
0
100
AcDbBlockEnd
  0
BLOCK
  5
457C
330
4570
100
AcDbEntity
  8
0
100
AcDbBlockBegin
  2
A$C7AA157BA
 70
     0
 10
0.0
 20
0.0
 30
0.0
  3
A$C7AA157BA
  1

  0
CIRCLE
  5
4571
330
4570
100
AcDbEntity
  8
3-線
100
AcDbCircle
 10
0.0
 20
0.0
 30
0.0
 40
8.33
  0
CIRCLE
  5
4572
330
4570
100
AcDbEntity
  8
3-線
100
AcDbCircle
 10
0.0
 20
0.0
 30
0.0
 40
7.5
  0
CIRCLE
  5
4573
330
4570
100
AcDbEntity
  8
3-線
100
AcDbCircle
 10
0.0
 20
0.0
 30
0.0
 40
12.5
  0
LINE
  5
4574
330
4570
100
AcDbEntity
  8
3-線
100
AcDbLine
 10
-7.008644662129738
 20
-2.670000000000043
 30
0.0
 11
4.159999999999995
 21
-2.670000000000015
 31
0.0
  0
LINE
  5
4575
330
4570
100
AcDbEntity
  8
3-線
100
AcDbLine
 10
-7.008644662129768
 20
2.67
 30
0.0
 11
4.160000000000053
 21
2.670000000000029
 31
0.0
  0
LINE
  5
4576
330
4570
100
AcDbEntity
  8
3-線
100
AcDbLine
 10
4.160000000000025
 20
-2.669999999999987
 30
0.0
 11
4.160000000000025
 21
2.670000000000043
 31
0.0
  0
LINE
  5
4577
330
4570
100
AcDbEntity
  8
3-線
100
AcDbLine
 10
4.83000000000004
 20
-1.999999999999971
 30
0.0
 11
4.83000000000004
 21
2.000000000000027
 31
0.0
  0
LINE
  5
4578
330
4570
100
AcDbEntity
  8
3-線
100
AcDbLine
 10
4.83000000000004
 20
-1.999999999999971
 30
0.0
 11
7.22841614740048
 21
-1.999999999999971
 31
0.0
  0
LINE
  5
4579
330
4570
100
AcDbEntity
  8
3-線
100
AcDbLine
 10
4.83000000000004
 20
-1.999999999999971
 30
0.0
 11
4.160000000000025
 21
-2.669999999999987
 31
0.0
  0
LINE
  5
457A
330
4570
100
AcDbEntity
  8
3-線
100
AcDbLine
 10
4.83000000000004
 20
2.000000000000027
 30
0.0
 11
7.22841614740048
 21
2.000000000000042
 31
0.0
  0
LINE
  5
457B
330
4570
100
AcDbEntity
  8
3-線
100
AcDbLine
 10
4.83000000000004
 20
2.000000000000027
 30
0.0
 11
4.160000000000025
 21
2.670000000000043
 31
0.0
  0
ENDBLK
  5
457D
330
4570
100
AcDbEntity
  8
0
100
AcDbBlockEnd
  0
BLOCK
  5
498E
330
4982
100
AcDbEntity
  8
0
100
AcDbBlockBegin
  2
A$C56C91989
 70
     0
 10
0.0
 20
0.0
 30
0.0
  3
A$C56C91989
  1

  0
CIRCLE
  5
4983
330
4982
100
AcDbEntity
  8
3-線
100
AcDbCircle
 10
0.0
 20
0.0
 30
0.0
 40
13.83
  0
CIRCLE
  5
4984
330
4982
100
AcDbEntity
  8
3-線
100
AcDbCircle
 10
0.0
 20
0.0
 30
0.0
 40
8.33
  0
CIRCLE
  5
4985
330
4982
100
AcDbEntity
  8
3-線
100
AcDbCircle
 10
0.0
 20
0.0
 30
0.0
 40
9.169999999999999
  0
LINE
  5
4986
330
4982
100
AcDbEntity
  8
3-線
100
AcDbLine
 10
7.80144217436748
 20
2.920000000000071
 30
0.0
 11
-4.670000000000071
 21
2.919999999999987
 31
0.0
  0
LINE
  5
4987
330
4982
100
AcDbEntity
  8
3-線
100
AcDbLine
 10
7.801442174367537
 20
-2.919999999999901
 30
0.0
 11
-4.670000000000044
 21
-2.920000000000043
 31
0.0
  0
LINE
  5
4988
330
4982
100
AcDbEntity
  8
3-線
100
AcDbLine
 10
-4.670000000000071
 20
2.919999999999959
 30
0.0
 11
-4.670000000000071
 21
-2.920000000000015
 31
0.0
  0
LINE
  5
4989
330
4982
100
AcDbEntity
  8
3-線
100
AcDbLine
 10
-5.510000000000103
 20
2.079999999999869
 30
0.0
 11
-5.50999999999999
 21
-2.080000000000096
 31
0.0
  0
LINE
  5
498A
330
4982
100
AcDbEntity
  8
3-線
100
AcDbLine
 10
-5.50999999999999
 20
-2.080000000000096
 30
0.0
 11
-8.066132902450817
 21
-2.080000000000126
 31
0.0
  0
LINE
  5
498B
330
4982
100
AcDbEntity
  8
3-線
100
AcDbLine
 10
-4.670000000000071
 20
-2.920000000000015
 30
0.0
 11
-5.50999999999999
 21
-2.080000000000096
 31
0.0
  0
LINE
  5
498C
330
4982
100
AcDbEntity
  8
3-線
100
AcDbLine
 10
-5.510000000000103
 20
2.079999999999869
 30
0.0
 11
-8.066132902450874
 21
2.079999999999869
 31
0.0
  0
LINE
  5
498D
330
4982
100
AcDbEntity
  8
3-線
100
AcDbLine
 10
-5.510000000000103
 20
2.079999999999869
 30
0.0
 11
-4.670000000000071
 21
2.919999999999959
 31
0.0
  0
ENDBLK
  5
498F
330
4982
100
AcDbEntity
  8
0
100
AcDbBlockEnd
  0
BLOCK
  5
49B4
330
49AA
100
AcDbEntity
  8
0
100
AcDbBlockBegin
  2
*D10
 70
     1
 10
0.0
 20
0.0
 30
0.0
  3
*D10
  1

  0
LINE
  5
49AB
330
49AA
100
AcDbEntity
  8
1-線
 62
     0
370
    -2
100
AcDbLine
 10
184.5605077428109
 20
147.0
 30
0.0
 11
184.5605077428109
 21
139.0
 31
0.0
  0
LINE
  5
49AC
330
49AA
100
AcDbEntity
  8
1-線
 62
     0
370
    -2
100
AcDbLine
 10
261.2305077428108
 20
186.707594172181
 30
0.0
 11
261.2305077428108
 21
139.0
 31
0.0
  0
LINE
  5
49AD
330
49AA
100
AcDbEntity
  8
1-線
 62
     0
370
    -2
100
AcDbLine
 10
187.0605077428109
 20
140.0
 30
0.0
 11
258.7305077428108
 21
140.0
 31
0.0
  0
INSERT
  5
49AE
330
49AA
100
AcDbEntity
  8
1-線
 62
     0
370
    -2
100
AcDbBlockReference
  2
_Open30
 10
184.5605077428109
 20
140.0
 30
0.0
 41
2.5
 42
2.5
 43
2.5
 50
180.0
  0
INSERT
  5
49AF
330
49AA
100
AcDbEntity
  8
1-線
 62
     0
370
    -2
100
AcDbBlockReference
  2
_Open30
 10
261.2305077428108
 20
140.0
 30
0.0
 41
2.5
 42
2.5
 43
2.5
  0
MTEXT
  5
49B0
330
49AA
100
AcDbEntity
  8
1-線
 62
     0
100
AcDbMText
 10
222.8955077428108
 20
142.5
 30
0.0
 40
3.0
 41
0.0
 71
     5
 72
     1
  1
230
 73
     1
 44
1.0
  0
POINT
  5
49B1
330
49AA
100
AcDbEntity
  8
Defpoints
 62
     0
100
AcDbPoint
 10
184.5605077428109
 20
147.0
 30
0.0
  0
POINT
  5
49B2
330
49AA
100
AcDbEntity
  8
Defpoints
 62
     0
100
AcDbPoint
 10
261.2305077428108
 20
186.707594172181
 30
0.0
  0
POINT
  5
49B3
330
49AA
100
AcDbEntity
  8
Defpoints
 62
     0
100
AcDbPoint
 10
261.2305077428108
 20
140.0
 30
0.0
  0
ENDBLK
  5
49B5
330
49AA
100
AcDbEntity
  8
0
100
AcDbBlockEnd
  0
BLOCK
  5
49C0
330
49B6
100
AcDbEntity
  8
0
100
AcDbBlockBegin
  2
*D11
 70
     1
 10
0.0
 20
0.0
 30
0.0
  3
*D11
  1

  0
LINE
  5
49B7
330
49B6
100
AcDbEntity
  8
1-線
 62
     0
370
    -2
100
AcDbLine
 10
124.3845077428104
 20
225.9483169712714
 30
0.0
 11
124.3845077428104
 21
245.0
 31
0.0
  0
LINE
  5
49B8
330
49B6
100
AcDbEntity
  8
1-線
 62
     0
370
    -2
100
AcDbLine
 10
293.0705077428104
 20
225.9483169712726
 30
0.0
 11
293.0705077428104
 21
245.0
 31
0.0
  0
LINE
  5
49B9
330
49B6
100
AcDbEntity
  8
1-線
 62
     0
370
    -2
100
AcDbLine
 10
126.8845077428104
 20
244.0
 30
0.0
 11
290.5705077428104
 21
244.0
 31
0.0
  0
INSERT
  5
49BA
330
49B6
100
AcDbEntity
  8
1-線
 62
     0
370
    -2
100
AcDbBlockReference
  2
_Open30
 10
124.3845077428104
 20
244.0
 30
0.0
 41
2.5
 42
2.5
 43
2.5
 50
180.0
  0
INSERT
  5
49BB
330
49B6
100
AcDbEntity
  8
1-線
 62
     0
370
    -2
100
AcDbBlockReference
  2
_Open30
 10
293.0705077428104
 20
244.0
 30
0.0
 41
2.5
 42
2.5
 43
2.5
  0
MTEXT
  5
49BC
330
49B6
100
AcDbEntity
  8
1-線
 62
     0
100
AcDbMText
 10
208.7275077428104
 20
246.5
 30
0.0
 40
3.0
 41
0.0
 71
     5
 72
     1
  1
506
 73
     1
 44
1.0
  0
POINT
  5
49BD
330
49B6
100
AcDbEntity
  8
Defpoints
 62
     0
100
AcDbPoint
 10
124.3845077428104
 20
225.9483169712714
 30
0.0
  0
POINT
  5
49BE
330
49B6
100
AcDbEntity
  8
Defpoints
 62
     0
100
AcDbPoint
 10
293.0705077428104
 20
225.9483169712726
 30
0.0
  0
POINT
  5
49BF
330
49B6
100
AcDbEntity
  8
Defpoints
 62
     0
100
AcDbPoint
 10
293.0705077428104
 20
244.0
 30
0.0
  0
ENDBLK
  5
49C1
330
49B6
100
AcDbEntity
  8
0
100
AcDbBlockEnd
  0
BLOCK
  5
49CC
330
49C2
100
AcDbEntity
  8
0
100
AcDbBlockBegin
  2
*D12
 70
     1
 10
0.0
 20
0.0
 30
0.0
  3
*D12
  1

  0
LINE
  5
49C3
330
49C2
100
AcDbEntity
  8
1-線
 62
     0
370
    -2
100
AcDbLine
 10
305.0705077428105
 20
179.8675941721807
 30
0.0
 11
359.9099999999999
 21
179.8675941721807
 31
0.0
  0
LINE
  5
49C4
330
49C2
100
AcDbEntity
  8
1-線
 62
     0
370
    -2
100
AcDbLine
 10
305.0705077428105
 20
219.8675941721813
 30
0.0
 11
359.9099999999999
 21
219.8675941721813
 31
0.0
  0
LINE
  5
49C5
330
49C2
100
AcDbEntity
  8
1-線
 62
     0
370
    -2
100
AcDbLine
 10
358.9099999999998
 20
182.3675941721806
 30
0.0
 11
358.9099999999998
 21
217.3675941721813
 31
0.0
  0
INSERT
  5
49C6
330
49C2
100
AcDbEntity
  8
1-線
 62
     0
370
    -2
100
AcDbBlockReference
  2
_Open30
 10
358.9099999999998
 20
179.8675941721807
 30
0.0
 41
2.5
 42
2.5
 43
2.5
 50
270.0
  0
INSERT
  5
49C7
330
49C2
100
AcDbEntity
  8
1-線
 62
     0
370
    -2
100
AcDbBlockReference
  2
_Open30
 10
358.9099999999998
 20
219.8675941721813
 30
0.0
 41
2.5
 42
2.5
 43
2.5
 50
90.0
  0
MTEXT
  5
49C8
330
49C2
100
AcDbEntity
  8
1-線
 62
     0
100
AcDbMText
 10
356.4099999999998
 20
199.8675941721811
 30
0.0
 40
3.0
 41
0.0
 71
     5
 72
     1
  1
%%c120
 11
0.0000000000000001
 21
1.0
 31
0.0
 73
     1
 44
1.0
  0
POINT
  5
49C9
330
49C2
100
AcDbEntity
  8
Defpoints
 62
     0
100
AcDbPoint
 10
305.0705077428105
 20
179.8675941721807
 30
0.0
  0
POINT
  5
49CA
330
49C2
100
AcDbEntity
  8
Defpoints
 62
     0
100
AcDbPoint
 10
305.0705077428105
 20
219.8675941721813
 30
0.0
  0
POINT
  5
49CB
330
49C2
100
AcDbEntity
  8
Defpoints
 62
     0
100
AcDbPoint
 10
358.9099999999998
 20
219.8675941721813
 30
0.0
  0
ENDBLK
  5
49CD
330
49C2
100
AcDbEntity
  8
0
100
AcDbBlockEnd
  0
BLOCK
  5
49D8
330
49CE
100
AcDbEntity
  8
0
100
AcDbBlockBegin
  2
*D13
 70
     1
 10
0.0
 20
0.0
 30
0.0
  3
*D13
  1

  0
LINE
  5
49CF
330
49CE
100
AcDbEntity
  8
1-線
 62
     0
370
    -2
100
AcDbLine
 10
306.5705077428106
 20
192.5275941721811
 30
0.0
 11
306.5705077428106
 21
155.0292622499745
 31
0.0
  0
LINE
  5
49D0
330
49CE
100
AcDbEntity
  8
1-線
 62
     0
370
    -2
100
AcDbLine
 10
324.9005077428106
 20
164.8540380805486
 30
0.0
 11
324.9005077428106
 21
155.0292622499745
 31
0.0
  0
LINE
  5
49D1
330
49CE
100
AcDbEntity
  8
1-線
 62
     0
370
    -2
100
AcDbLine
 10
309.0705077428107
 20
156.0292622499745
 30
0.0
 11
322.4005077428107
 21
156.0292622499745
 31
0.0
  0
INSERT
  5
49D2
330
49CE
100
AcDbEntity
  8
1-線
 62
     0
370
    -2
100
AcDbBlockReference
  2
_Open30
 10
306.5705077428106
 20
156.0292622499745
 30
0.0
 41
2.5
 42
2.5
 43
2.5
 50
180.0
  0
INSERT
  5
49D3
330
49CE
100
AcDbEntity
  8
1-線
 62
     0
370
    -2
100
AcDbBlockReference
  2
_Open30
 10
324.9005077428106
 20
156.0292622499745
 30
0.0
 41
2.5
 42
2.5
 43
2.5
  0
MTEXT
  5
49D4
330
49CE
100
AcDbEntity
  8
1-線
 62
     0
100
AcDbMText
 10
315.7355077428107
 20
158.5292622499746
 30
0.0
 40
3.0
 41
0.0
 71
     5
 72
     1
  1
55
 73
     1
 44
1.0
  0
POINT
  5
49D5
330
49CE
100
AcDbEntity
  8
Defpoints
 62
     0
100
AcDbPoint
 10
306.5705077428106
 20
192.5275941721811
 30
0.0
  0
POINT
  5
49D6
330
49CE
100
AcDbEntity
  8
Defpoints
 62
     0
100
AcDbPoint
 10
324.9005077428106
 20
164.8540380805486
 30
0.0
  0
POINT
  5
49D7
330
49CE
100
AcDbEntity
  8
Defpoints
 62
     0
100
AcDbPoint
 10
324.9005077428106
 20
156.0292622499745
 30
0.0
  0
ENDBLK
  5
49D9
330
49CE
100
AcDbEntity
  8
0
100
AcDbBlockEnd
  0
BLOCK
  5
49E4
330
49DA
100
AcDbEntity
  8
0
100
AcDbBlockBegin
  2
*D14
 70
     1
 10
0.0
 20
0.0
 30
0.0
  3
*D14
  1

  0
LINE
  5
49DB
330
49DA
100
AcDbEntity
  8
1-線
 62
     0
370
    -2
100
AcDbLine
 10
324.0705077428105
 20
213.697594172181
 30
0.0
 11
351.9099999999999
 21
213.697594172181
 31
0.0
  0
LINE
  5
49DC
330
49DA
100
AcDbEntity
  8
1-線
 62
     0
370
    -2
100
AcDbLine
 10
323.1172954255995
 20
186.0375941721811
 30
0.0
 11
351.9099999999999
 21
186.0375941721811
 31
0.0
  0
LINE
  5
49DD
330
49DA
100
AcDbEntity
  8
1-線
 62
     0
370
    -2
100
AcDbLine
 10
350.9099999999999
 20
211.197594172181
 30
0.0
 11
350.9099999999999
 21
188.5375941721811
 31
0.0
  0
INSERT
  5
49DE
330
49DA
100
AcDbEntity
  8
1-線
 62
     0
370
    -2
100
AcDbBlockReference
  2
_Open30
 10
350.9099999999999
 20
213.697594172181
 30
0.0
 41
2.5
 42
2.5
 43
2.5
 50
90.0
  0
INSERT
  5
49DF
330
49DA
100
AcDbEntity
  8
1-線
 62
     0
370
    -2
100
AcDbBlockReference
  2
_Open30
 10
350.9099999999999
 20
186.0375941721811
 30
0.0
 41
2.5
 42
2.5
 43
2.5
 50
270.0
  0
MTEXT
  5
49E0
330
49DA
100
AcDbEntity
  8
1-線
 62
     0
100
AcDbMText
 10
348.4099999999997
 20
199.8675941721811
 30
0.0
 40
3.0
 41
0.0
 71
     5
 72
     1
  1
%%c83
 11
0.0000000000000001
 21
1.0
 31
0.0
 73
     1
 44
1.0
  0
POINT
  5
49E1
330
49DA
100
AcDbEntity
  8
Defpoints
 62
     0
100
AcDbPoint
 10
324.0705077428105
 20
213.697594172181
 30
0.0
  0
POINT
  5
49E2
330
49DA
100
AcDbEntity
  8
Defpoints
 62
     0
100
AcDbPoint
 10
323.1172954255995
 20
186.0375941721811
 30
0.0
  0
POINT
  5
49E3
330
49DA
100
AcDbEntity
  8
Defpoints
 62
     0
100
AcDbPoint
 10
350.9099999999999
 20
186.0375941721811
 30
0.0
  0
ENDBLK
  5
49E5
330
49DA
100
AcDbEntity
  8
0
100
AcDbBlockEnd
  0
BLOCK
  5
4A7E
330
49E6
100
AcDbEntity
  8
0
100
AcDbBlockBegin
  2
A$C46152F82
 70
     0
 10
0.0
 20
0.0
 30
0.0
  3
A$C46152F82
  1

  0
LINE
  5
49E7
330
49E6
100
AcDbEntity
  8
3-線
100
AcDbLine
 10
-107.8399999999999
 20
-13.82999999999998
 30
0.0
 11
-32.50999999999989
 21
-13.82999999999998
 31
0.0
  0
LINE
  5
49E8
330
49E6
100
AcDbEntity
  8
3-線
100
AcDbLine
 10
-107.8400000000001
 20
13.82999999999998
 30
0.0
 11
-32.5100000000001
 21
13.82999999999998
 31
0.0
  0
LINE
  5
49E9
330
49E6
100
AcDbEntity
  8
1-1点
100
AcDbLine
 10
-209.814929575879
 20
0.0
 30
0.0
 11
40.34537973846613
 21
0.0
 31
0.0
  0
DIMENSION
  5
49EA
330
49E6
100
AcDbEntity
  8
1-線
100
AcDbDimension
  2
*D11
 10
-0.0000000000002274
 20
44.13240582781895
 30
0.0
 11
-84.34300000000019
 21
46.63240582781895
 31
0.0
 12
-293.0705077428106
 22
-199.867594172181
 32
0.0
  1
506
 71
     5
 42
168.686
  3
Kyouwa
100
AcDbAlignedDimension
 13
-168.6860000000002
 23
26.0807227990903
 33
0.0
 14
-0.0000000000002274
 24
26.08072279909158
 34
0.0
100
AcDbRotatedDimension
  0
DIMENSION
  5
49EB
330
49E6
100
AcDbEntity
  8
1-線
100
AcDbDimension
  2
*D10
 10
-31.83999999999986
 20
-59.86759417218104
 30
0.0
 11
-70.17499999999976
 21
-57.36759417218104
 31
0.0
 12
-293.0705077428106
 22
-199.867594172181
 32
0.0
  1
230
 71
     5
 42
76.6699999999998
  3
Kyouwa
100
AcDbAlignedDimension
 13
-108.5099999999996
 23
-52.86759417218104
 33
0.0
 14
-31.83999999999986
 24
-13.16
 34
0.0
100
AcDbRotatedDimension
1001
ACAD
1000
DSTYLE
1002
{
1070
   279
1070
     1
1002
}
  0
LINE
  5
49EC
330
49E6
100
AcDbEntity
  8
1-線
100
AcDbLine
 10
30.99999999999994
 20
8.329999999999984
 30
0.0
 11
50.83949225718914
 21
8.329999999999984
 31
0.0
  0
LINE
  5
49ED
330
49E6
100
AcDbEntity
  8
1-線
100
AcDbLine
 10
31.00000000000012
 20
-8.329999999999953
 30
0.0
 11
50.83949225718918
 21
-8.329999999999953
 31
0.0
  0
DIMENSION
  5
49EE
330
49E6
100
AcDbEntity
  8
1-線
100
AcDbDimension
  2
*D14
 10
57.83949225718918
 20
-13.82999999999995
 30
0.0
 11
55.33949225718913
 21
0.0000000000000853
 31
0.0
 12
-293.0705077428106
 22
-199.867594172181
 32
0.0
  1
%%c83
 71
     5
 42
27.65999999999995
  3
Kyouwa
100
AcDbAlignedDimension
 13
30.99999999999989
 23
13.82999999999998
 33
0.0
 14
30.04678768278893
 24
-13.82999999999995
 34
0.0
 50
90.0
100
AcDbRotatedDimension
  0
DIMENSION
  5
49EF
330
49E6
100
AcDbEntity
  8
1-線
100
AcDbDimension
  2
*D12
 10
65.83949225718919
 20
20.00000000000023
 30
0.0
 11
63.33949225718914
 21
0.0000000000000284
 31
0.0
 12
-293.0705077428106
 22
-199.867594172181
 32
0.0
  1
%%c120
 71
     5
 42
40.00000000000054
  3
Kyouwa
100
AcDbAlignedDimension
 13
11.99999999999988
 23
-20.00000000000028
 33
0.0
 14
11.99999999999988
 24
20.00000000000026
 34
0.0
 50
90.0
100
AcDbRotatedDimension
  0
LINE
  5
49F0
330
49E6
100
AcDbEntity
  8
2-線
100
AcDbLine
 10
-38.96115803580754
 20
12.1841186966719
 30
0.0
 11
-36.15890651096834
 21
41.8733682028944
 31
0.0
1001
ACAD
1000
DSTYLE
1002
{
1070
   147
1040
1.0
1070
    77
1070
     1
1002
}
  0
LEADER
  5
49F1
330
49E6
100
AcDbEntity
  8
2-線
100
AcDbLeader
  3
Kyouwa
 76
     2
 10
3.999999999999828
 20
20.0
 30
0.0
 10
9.550767847221095
 20
54.70144662160823
 30
0.0
1001
ACAD
1000
DSTYLE
1002
{
1070
   147
1040
1.0
1070
    77
1070
     1
1002
}
  0
LEADER
  5
49F2
330
49E6
100
AcDbEntity
  8
2-線
100
AcDbLeader
  3
Kyouwa
 76
     2
 10
18.87210079823285
 20
10.56146652018651
 30
0.0
 10
25.59099349755383
 20
54.69516481740914
 30
0.0
1001
ACAD
1000
DSTYLE
1002
{
1070
   147
1040
1.0
1070
    77
1070
     1
1002
}
  0
LINE
  5
49F3
330
49E6
100
AcDbEntity
  8
4-線
100
AcDbLine
 10
-31.00999999999988
 20
-14.32999999999998
 30
0.0
 11
-13.50999999999987
 21
-14.32999999999998
 31
0.0
  0
LINE
  5
49F4
330
49E6
100
AcDbEntity
  8
4-線
100
AcDbLine
 10
-31.01000000000011
 20
14.33000000000001
 30
0.0
 11
-13.5100000000001
 21
14.33000000000001
 31
0.0
  0
LINE
  5
49F5
330
49E6
100
AcDbEntity
  8
3-線
100
AcDbLine
 10
-20.58999999999986
 20
-8.329999999999984
 30
0.0
 11
-13.50999999999993
 21
-8.329999999999984
 31
0.0
  0
LINE
  5
49F6
330
49E6
100
AcDbEntity
  8
3-線
100
AcDbLine
 10
-19.75000000000006
 20
8.329999999999984
 30
0.0
 11
-13.51000000000005
 21
8.329999999999984
 31
0.0
  0
LINE
  5
49F7
330
49E6
100
AcDbEntity
  8
3-線
100
AcDbLine
 10
-22.11999999999983
 20
-13.82999999999998
 30
0.0
 11
-13.50999999999987
 21
-13.82999999999998
 31
0.0
  0
LINE
  5
49F8
330
49E6
100
AcDbEntity
  8
3-線
100
AcDbLine
 10
-22.12000000000012
 20
13.83000000000001
 30
0.0
 11
-13.5100000000001
 21
13.83000000000001
 31
0.0
  0
LINE
  5
49F9
330
49E6
100
AcDbEntity
  8
3-線
100
AcDbLine
 10
-24.74999999999983
 20
-5.510000000000132
 30
0.0
 11
-25.58999999999993
 21
-4.670000000000044
 31
0.0
  0
LINE
  5
49FA
330
49E6
100
AcDbEntity
  8
3-線
100
AcDbLine
 10
-19.74999999999994
 20
-4.670000000000044
 30
0.0
 11
-20.58999999999986
 21
-5.509999999999961
 31
0.0
  0
LINE
  5
49FB
330
49E6
100
AcDbEntity
  8
3-線
100
AcDbLine
 10
-19.75000000000011
 20
13.83000000000001
 30
0.0
 11
-19.74999999999983
 21
-13.82999999999998
 31
0.0
  0
LINE
  5
49FC
330
49E6
100
AcDbEntity
  8
3-線
100
AcDbLine
 10
-25.59000000000009
 20
13.83000000000001
 30
0.0
 11
-25.58999999999986
 21
-13.83000000000001
 31
0.0
  0
LINE
  5
49FD
330
49E6
100
AcDbEntity
  8
1-1点
100
AcDbLine
 10
-22.67000000000013
 20
16.55919838190789
 30
0.0
 11
-22.66999999999979
 21
-16.85113093199152
 31
0.0
  0
LINE
  5
49FE
330
49E6
100
AcDbEntity
  8
3-線
100
AcDbLine
 10
-31.84000000000009
 20
13.0
 30
0.0
 11
-31.83999999999986
 21
-13.0
 31
0.0
  0
LINE
  5
49FF
330
49E6
100
AcDbEntity
  8
3-線
100
AcDbLine
 10
-38.3400000000001
 20
13.49999999999994
 30
0.0
 11
-38.33999999999992
 21
-13.50000000000014
 31
0.0
  0
LINE
  5
4A00
330
49E6
100
AcDbEntity
  8
3-線
100
AcDbLine
 10
-38.33999999999996
 20
-9.169999999999987
 30
0.0
 11
-31.83999999999993
 21
-9.169999999999987
 31
0.0
  0
LINE
  5
4A01
330
49E6
100
AcDbEntity
  8
3-線
100
AcDbLine
 10
-43.67999999999989
 20
-13.49999999999997
 30
0.0
 11
-38.33999999999992
 21
-13.50000000000003
 31
0.0
  0
LINE
  5
4A02
330
49E6
100
AcDbEntity
  8
3-線
100
AcDbLine
 10
-38.34000000000006
 20
-13.5
 30
0.0
 11
-38.01000000000005
 21
-13.83000000000001
 31
0.0
  0
LINE
  5
4A03
330
49E6
100
AcDbEntity
  8
3-線
100
AcDbLine
 10
-31.83999999999993
 20
-8.329999999999984
 30
0.0
 11
-24.74999999999983
 21
-8.329999999999984
 31
0.0
  0
LINE
  5
4A04
330
49E6
100
AcDbEntity
  8
3-線
100
AcDbLine
 10
-31.00999999999988
 20
-13.83000000000001
 30
0.0
 11
-23.21999999999986
 21
-13.83000000000001
 31
0.0
  0
ARC
  5
4A05
330
49E6
100
AcDbEntity
  8
3-線
100
AcDbCircle
 10
-31.00999999999988
 20
-13.0
 30
0.0
 40
0.8299999999999998
100
AcDbArc
 50
180.0
 51
270.0
  0
LINE
  5
4A06
330
49E6
100
AcDbEntity
  8
3-線
100
AcDbLine
 10
-31.83999999999986
 20
-13.16
 30
0.0
 11
-32.50999999999989
 21
-13.82999999999998
 31
0.0
  0
LINE
  5
4A07
330
49E6
100
AcDbEntity
  8
3-線
100
AcDbLine
 10
-31.83999999999993
 20
-9.169999999999987
 30
0.0
 11
-31.00999999999994
 21
-8.329999999999984
 31
0.0
  0
LINE
  5
4A08
330
49E6
100
AcDbEntity
  8
3-線
100
AcDbLine
 10
-24.74999999999983
 20
-5.510000000000132
 30
0.0
 11
-24.74999999999983
 21
-13.0
 31
0.0
  0
LINE
  5
4A09
330
49E6
100
AcDbEntity
  8
3-線
100
AcDbLine
 10
-20.58999999999986
 20
-5.509999999999961
 30
0.0
 11
-20.58999999999981
 21
-12.99999999999997
 31
0.0
  0
LINE
  5
4A0A
330
49E6
100
AcDbEntity
  8
3-線
100
AcDbLine
 10
-24.74999999999983
 20
-13.0
 30
0.0
 11
-20.58999999999981
 21
-12.99999999999997
 31
0.0
  0
CIRCLE
  5
4A0B
330
49E6
100
AcDbEntity
  8
3-線
100
AcDbCircle
 10
-22.66999999999985
 20
-13.41999999999996
 30
0.0
 40
0.4200000000000001
  0
LINE
  5
4A0C
330
49E6
100
AcDbEntity
  8
3-線
100
AcDbLine
 10
-22.11999999999983
 20
-12.99999999999997
 30
0.0
 11
-22.11999999999983
 21
-13.82999999999998
 31
0.0
  0
LINE
  5
4A0D
330
49E6
100
AcDbEntity
  8
3-線
100
AcDbLine
 10
-23.21999999999986
 20
-12.99999999999997
 30
0.0
 11
-23.21999999999986
 21
-13.83000000000001
 31
0.0
  0
LINE
  5
4A0E
330
49E6
100
AcDbEntity
  8
3-線
100
AcDbLine
 10
-24.74999999999983
 20
-5.510000000000132
 30
0.0
 11
-20.58999999999986
 21
-5.509999999999961
 31
0.0
  0
LINE
  5
4A0F
330
49E6
100
AcDbEntity
  8
3-線
100
AcDbLine
 10
-38.34000000000006
 20
9.169999999999987
 30
0.0
 11
-31.84000000000003
 21
9.169999999999987
 31
0.0
  0
LINE
  5
4A10
330
49E6
100
AcDbEntity
  8
3-線
100
AcDbLine
 10
-43.68000000000006
 20
13.49999999999994
 30
0.0
 11
-38.3400000000001
 21
13.5
 31
0.0
  0
INSERT
  5
4A11
330
49E6
100
AcDbEntity
  8
2-線
100
AcDbBlockReference
  2
_Open30
 10
-39.19607910207884
 20
9.695180751960947
 30
0.0
 41
2.500000000000004
 42
2.5
 43
2.5
 50
264.6080505994674
1001
ACAD
1000
DSTYLE
1002
{
1070
   147
1040
1.0
1070
    77
1070
     1
1002
}
  0
LINE
  5
4A12
330
49E6
100
AcDbEntity
  8
3-線
100
AcDbLine
 10
-38.34000000000006
 20
13.49999999999997
 30
0.0
 11
-38.01000000000005
 21
13.82999999999998
 31
0.0
  0
LINE
  5
4A13
330
49E6
100
AcDbEntity
  8
3-線
100
AcDbLine
 10
-25.58999999999993
 20
-4.670000000000044
 30
0.0
 11
-19.74999999999994
 21
-4.670000000000044
 31
0.0
  0
LINE
  5
4A14
330
49E6
100
AcDbEntity
  8
3-線
100
AcDbLine
 10
-31.84000000000003
 20
8.329999999999984
 30
0.0
 11
-25.59000000000003
 21
8.329999999999984
 31
0.0
  0
LINE
  5
4A15
330
49E6
100
AcDbEntity
  8
3-線
100
AcDbLine
 10
-31.01000000000011
 20
13.83000000000001
 30
0.0
 11
-23.22000000000014
 21
13.83000000000001
 31
0.0
  0
LINE
  5
4A16
330
49E6
100
AcDbEntity
  8
3-線
100
AcDbLine
 10
-31.84000000000003
 20
9.159999999999996
 30
0.0
 11
-31.01000000000005
 21
8.329999999999984
 31
0.0
  0
ARC
  5
4A17
330
49E6
100
AcDbEntity
  8
3-線
100
AcDbCircle
 10
-31.01000000000011
 20
13.0
 30
0.0
 40
0.8299999999999998
100
AcDbArc
 50
90.0
 51
180.0
  0
LINE
  5
4A18
330
49E6
100
AcDbEntity
  8
3-線
100
AcDbLine
 10
-32.5100000000001
 20
13.82999999999998
 30
0.0
 11
-31.84000000000009
 21
13.16
 31
0.0
  0
LINE
  5
4A19
330
49E6
100
AcDbEntity
  8
3-線
100
AcDbLine
 10
-25.59000000000009
 20
13.0
 30
0.0
 11
-19.75000000000011
 21
13.0
 31
0.0
  0
CIRCLE
  5
4A1A
330
49E6
100
AcDbEntity
  8
3-線
100
AcDbCircle
 10
-22.67000000000007
 20
13.41999999999998
 30
0.0
 40
0.4200000000000001
  0
LINE
  5
4A1B
330
49E6
100
AcDbEntity
  8
3-線
100
AcDbLine
 10
-22.12000000000012
 20
13.83000000000001
 30
0.0
 11
-22.12000000000012
 21
13.0
 31
0.0
  0
LINE
  5
4A1C
330
49E6
100
AcDbEntity
  8
3-線
100
AcDbLine
 10
-23.22000000000014
 20
13.83000000000001
 30
0.0
 11
-23.22000000000014
 21
13.0
 31
0.0
  0
LINE
  5
4A1D
330
49E6
100
AcDbEntity
  8
3-線
100
AcDbLine
 10
6.005573149360826
 20
5.024140836767656
 30
0.0
 11
6.005573149360826
 21
-5.024140836767656
 31
0.0
  0
ARC
  5
4A1E
330
49E6
100
AcDbEntity
  8
3-線
100
AcDbCircle
 10
0.0
 20
0.0
 30
0.0
 40
7.83
100
AcDbArc
 50
270.0
 51
90.0
  0
LINE
  5
4A1F
330
49E6
100
AcDbEntity
  8
3-線
100
AcDbLine
 10
8.670000000000014
 20
7.669999999999959
 30
0.0
 11
8.670000000000129
 21
-7.669999999999929
 31
0.0
  0
LINE
  5
4A20
330
49E6
100
AcDbEntity
  8
1-1点
100
AcDbLine
 10
-0.0000000000002274
 20
26.08072279909158
 30
0.0
 11
0.0000000000002274
 21
-28.3374540687372
 31
0.0
  0
LINE
  5
4A21
330
49E6
100
AcDbEntity
  8
3-線
100
AcDbLine
 10
-13.84000000000003
 20
8.329999999999984
 30
0.0
 11
-13.83999999999992
 21
-8.329999999999984
 31
0.0
  0
LINE
  5
4A22
330
49E6
100
AcDbEntity
  8
3-線
100
AcDbLine
 10
23.20999999999998
 20
-2.867734297315564
 30
0.0
 11
23.21000000000009
 21
-13.82999999999995
 31
0.0
  0
LINE
  5
4A23
330
49E6
100
AcDbEntity
  8
3-線
100
AcDbLine
 10
22.10999999999996
 20
-2.867734297315564
 30
0.0
 11
22.11000000000007
 21
-13.82999999999995
 31
0.0
  0
LINE
  5
4A24
330
49E6
100
AcDbEntity
  8
3-線
100
AcDbLine
 10
22.23999999999984
 20
13.41999999999998
 30
0.0
 11
22.24000000000012
 21
-13.41999999999998
 31
0.0
  0
LINE
  5
4A25
330
49E6
100
AcDbEntity
  8
3-線
100
AcDbLine
 10
23.07999999999987
 20
13.41999999999998
 30
0.0
 11
23.08000000000015
 21
-13.41999999999998
 31
0.0
  0
LINE
  5
4A26
330
49E6
100
AcDbEntity
  8
1-1点
100
AcDbLine
 10
22.6599999999998
 20
17.0956030566856
 30
0.0
 11
22.66000000000014
 21
-16.62124371425148
 31
0.0
  0
LINE
  5
4A27
330
49E6
100
AcDbEntity
  8
1-破線
100
AcDbLine
 10
31.0
 20
8.329999999999984
 30
0.0
 11
31.00000000000012
 21
-8.329999999999953
 31
0.0
  0
LINE
  5
4A28
330
49E6
100
AcDbEntity
  8
3-線
100
AcDbLine
 10
13.49999999999994
 20
7.492280288511182
 30
0.0
 11
13.50000000000006
 21
-7.492280288510697
 31
0.0
  0
LINE
  5
4A29
330
49E6
100
AcDbEntity
  8
3-線
100
AcDbLine
 10
-13.5100000000001
 20
13.83000000000001
 30
0.0
 11
-13.50999999999987
 21
-13.82999999999998
 31
0.0
  0
LINE
  5
4A2A
330
49E6
100
AcDbEntity
  8
3-線
100
AcDbLine
 10
31.82999999999987
 20
12.99999999999997
 30
0.0
 11
31.8300000000001
 21
-12.99999999999994
 31
0.0
  0
LEADER
  5
4A2B
330
49E6
100
AcDbEntity
  8
1-線
100
AcDbLeader
  3
Kyouwa
 76
     2
 10
24.64238267422712
 20
-2.413267872745535
 30
0.0
 10
40.4650000000002
 20
-35.83833192220647
 30
0.0
1001
ACAD
1000
DSTYLE
1002
{
1070
   147
1040
1.0
1070
    77
1070
     1
1002
}
  0
LINE
  5
4A2C
330
49E6
100
AcDbEntity
  8
4-線
100
AcDbLine
 10
31.00999999999994
 20
-14.33000000000072
 30
0.0
 11
13.50999999999993
 21
-14.33000000000032
 31
0.0
  0
LINE
  5
4A2D
330
49E6
100
AcDbEntity
  8
1-破線
100
AcDbLine
 10
13.05814413244695
 20
-8.329999999999984
 30
0.0
 11
31.00000000000012
 21
-8.329999999999953
 31
0.0
  0
LINE
  5
4A2E
330
49E6
100
AcDbEntity
  8
3-線
100
AcDbLine
 10
-6.015573149360817
 20
-13.82999999999998
 30
0.0
 11
22.11000000000007
 21
-13.82999999999995
 31
0.0
  0
DIMENSION
  5
4A2F
330
49E6
100
AcDbEntity
  8
1-線
100
AcDbDimension
  2
*D13
 10
31.8300000000001
 20
-43.83833192220645
 30
0.0
 11
22.66500000000008
 21
-41.33833192220645
 31
0.0
 12
-293.0705077428106
 22
-199.867594172181
 32
0.0
  1
55
 71
     5
 42
18.33000000000003
  3
Kyouwa
100
AcDbAlignedDimension
 13
13.50000000000006
 23
-7.339999999999946
 33
0.0
 14
31.8300000000001
 24
-35.01355609163238
 34
0.0
100
AcDbRotatedDimension
  0
LINE
  5
4A30
330
49E6
100
AcDbEntity
  8
4-線
100
AcDbLine
 10
-2.000000000000112
 20
-16.0
 30
0.0
 11
-0.0000000000001705
 21
-20.0
 31
0.0
  0
LINE
  5
4A31
330
49E6
100
AcDbEntity
  8
3-線
100
AcDbLine
 10
-9.509999999999934
 20
-7.830000000000013
 30
0.0
 11
0.0000000000000568
 21
-7.830000000000013
 31
0.0
  0
ARC
  5
4A32
330
49E6
100
AcDbEntity
  8
3-線
100
AcDbCircle
 10
0.0000000000001705
 20
-17.97581017647368
 30
0.0
 40
7.30581017647364
100
AcDbArc
 50
90.0
 51
145.4261817976586
  0
LINE
  5
4A33
330
49E6
100
AcDbEntity
  8
3-線
100
AcDbLine
 10
-7.839999999999974
 20
-8.669999999999987
 30
0.0
 11
12.17000000000001
 21
-8.669999999999959
 31
0.0
  0
LINE
  5
4A34
330
49E6
100
AcDbEntity
  8
4-線
100
AcDbLine
 10
-13.5100000000001
 20
-14.33000000000001
 30
0.0
 11
-12.00000000000017
 21
-20.0
 31
0.0
  0
LINE
  5
4A35
330
49E6
100
AcDbEntity
  8
4-線
100
AcDbLine
 10
-12.00000000000017
 20
-19.99999999999997
 30
0.0
 11
-10.00000000000011
 21
-16.0
 31
0.0
  0
LINE
  5
4A36
330
49E6
100
AcDbEntity
  8
4-線
100
AcDbLine
 10
-10.00000000000011
 20
-16.0
 30
0.0
 11
-8.00000000000017
 21
-20.0
 31
0.0
  0
LINE
  5
4A37
330
49E6
100
AcDbEntity
  8
4-線
100
AcDbLine
 10
-8.00000000000017
 20
-20.0
 30
0.0
 11
-6.000000000000111
 21
-16.0
 31
0.0
  0
LINE
  5
4A38
330
49E6
100
AcDbEntity
  8
4-線
100
AcDbLine
 10
-6.000000000000111
 20
-16.0
 30
0.0
 11
-4.000000000000169
 21
-20.0
 31
0.0
  0
LINE
  5
4A39
330
49E6
100
AcDbEntity
  8
4-線
100
AcDbLine
 10
-4.000000000000169
 20
-20.0
 30
0.0
 11
-2.000000000000112
 21
-16.0
 31
0.0
  0
ARC
  5
4A3A
330
49E6
100
AcDbEntity
  8
3-線
100
AcDbCircle
 10
-9.509999999999934
 20
-11.82999999999998
 30
0.0
 40
4.0
100
AcDbArc
 50
90.0
 51
180.0
  0
LINE
  5
4A3B
330
49E6
100
AcDbEntity
  8
3-線
100
AcDbLine
 10
-13.83999999999992
 20
-8.329999999999984
 30
0.0
 11
-13.50999999999993
 21
-7.999999999999971
 31
0.0
  0
LINE
  5
4A3C
330
49E6
100
AcDbEntity
  8
3-線
100
AcDbLine
 10
-7.839999999999974
 20
-10.67000000000004
 30
0.0
 11
-6.015573149360817
 21
-13.82999999999998
 31
0.0
  0
LINE
  5
4A3D
330
49E6
100
AcDbEntity
  8
3-線
100
AcDbLine
 10
-8.679999999999948
 20
-7.830000000000013
 30
0.0
 11
-7.839999999999918
 21
-8.670000000000014
 31
0.0
  0
LINE
  5
4A3E
330
49E6
100
AcDbEntity
  8
3-線
100
AcDbLine
 10
-7.839999999999974
 20
-8.669999999999987
 30
0.0
 11
-7.839999999999974
 21
-10.67000000000004
 31
0.0
  0
LINE
  5
4A3F
330
49E6
100
AcDbEntity
  8
4-線
100
AcDbLine
 10
-0.0000000000001705
 20
-20.0
 30
0.0
 11
1.999999999999885
 21
-16.0
 31
0.0
  0
LINE
  5
4A40
330
49E6
100
AcDbEntity
  8
4-線
100
AcDbLine
 10
1.999999999999885
 20
-16.0
 30
0.0
 11
3.999999999999828
 21
-20.0
 31
0.0
  0
LINE
  5
4A41
330
49E6
100
AcDbEntity
  8
4-線
100
AcDbLine
 10
3.999999999999828
 20
-20.0
 30
0.0
 11
5.999999999999886
 21
-16.0
 31
0.0
  0
LINE
  5
4A42
330
49E6
100
AcDbEntity
  8
4-線
100
AcDbLine
 10
5.999999999999886
 20
-16.0
 30
0.0
 11
7.999999999999829
 21
-20.0
 31
0.0
  0
LINE
  5
4A43
330
49E6
100
AcDbEntity
  8
4-線
100
AcDbLine
 10
7.999999999999829
 20
-20.0
 30
0.0
 11
9.999999999999886
 21
-16.0
 31
0.0
  0
LINE
  5
4A44
330
49E6
100
AcDbEntity
  8
4-線
100
AcDbLine
 10
13.50999999999993
 20
-14.33000000000032
 30
0.0
 11
11.99999999999988
 21
-20.00000000000028
 31
0.0
  0
LINE
  5
4A45
330
49E6
100
AcDbEntity
  8
4-線
100
AcDbLine
 10
11.99999999999988
 20
-20.00000000000026
 30
0.0
 11
9.999999999999886
 21
-16.00000000000022
 31
0.0
  0
LINE
  5
4A46
330
49E6
100
AcDbEntity
  8
3-線
100
AcDbLine
 10
0.0000000000001705
 20
-10.67000000000001
 30
0.0
 11
7.840000000000144
 21
-10.67000000000001
 31
0.0
  0
ARC
  5
4A47
330
49E6
100
AcDbEntity
  8
3-線
100
AcDbCircle
 10
9.585430403335976
 20
-6.669999999999986
 30
0.0
 40
4.0
100
AcDbArc
 50
270.0
 51
348.1371274425306
  0
LINE
  5
4A48
330
49E6
100
AcDbEntity
  8
3-線
100
AcDbLine
 10
7.840000000000144
 20
-10.66999999999999
 30
0.0
 11
9.585430403335976
 21
-10.66999999999999
 31
0.0
  0
LINE
  5
4A49
330
49E6
100
AcDbEntity
  8
3-線
100
AcDbLine
 10
8.670000000000072
 20
-7.669999999999959
 30
0.0
 11
7.670000000000072
 21
-8.669999999999959
 31
0.0
  0
ARC
  5
4A4A
330
49E6
100
AcDbEntity
  8
3-線
100
AcDbCircle
 10
12.17000000000001
 20
-7.339999999999946
 30
0.0
 40
1.33
100
AcDbArc
 50
270.0
 51
0.0
  0
LINE
  5
4A4B
330
49E6
100
AcDbEntity
  8
1-線
100
AcDbLine
 10
31.8300000000001
 20
-12.99999999999994
 30
0.0
 11
31.8300000000001
 21
-30.36135496378074
 31
0.0
  0
LINE
  5
4A4C
330
49E6
100
AcDbEntity
  8
1-線
100
AcDbLine
 10
22.66000000000014
 20
-16.62124371425148
 30
0.0
 11
22.66000000000014
 21
-36.86759417218104
 31
0.0
  0
LINE
  5
4A4D
330
49E6
100
AcDbEntity
  8
1-破線
100
AcDbLine
 10
31.00000000000006
 20
-8.329999999999984
 30
0.0
 11
31.83000000000004
 21
-9.159999999999996
 31
0.0
  0
ARC
  5
4A4E
330
49E6
100
AcDbEntity
  8
3-線
100
AcDbCircle
 10
31.00000000000012
 20
-12.99999999999994
 30
0.0
 40
0.8299999999999998
100
AcDbArc
 50
270.0
 51
0.0
  0
LINE
  5
4A4F
330
49E6
100
AcDbEntity
  8
3-線
100
AcDbLine
 10
23.21000000000009
 20
-13.82999999999995
 30
0.0
 11
31.00000000000012
 21
-13.82999999999995
 31
0.0
  0
LINE
  5
4A50
330
49E6
100
AcDbEntity
  8
3-線
100
AcDbLine
 10
23.08000000000015
 20
-13.0
 30
0.0
 11
23.21000000000009
 21
-13.0
 31
0.0
  0
ARC
  5
4A51
330
49E6
100
AcDbEntity
  8
3-線
100
AcDbCircle
 10
22.66000000000008
 20
-13.41999999999998
 30
0.0
 40
0.4200000000000001
100
AcDbArc
 50
180.0
 51
0.0
  0
LINE
  5
4A52
330
49E6
100
AcDbEntity
  8
3-線
100
AcDbLine
 10
22.11000000000007
 20
-13.0
 30
0.0
 11
22.24000000000012
 21
-13.0
 31
0.0
  0
LINE
  5
4A53
330
49E6
100
AcDbEntity
  8
4-線
100
AcDbLine
 10
31.00999999999994
 20
14.33000000000072
 30
0.0
 11
13.50999999999993
 21
14.33000000000032
 31
0.0
  0
LINE
  5
4A54
330
49E6
100
AcDbEntity
  8
1-破線
100
AcDbLine
 10
13.05814413244701
 20
8.329999999999984
 30
0.0
 11
31.0
 21
8.329999999999984
 31
0.0
  0
LINE
  5
4A55
330
49E6
100
AcDbEntity
  8
3-線
100
AcDbLine
 10
-6.015573149360874
 20
13.83000000000001
 30
0.0
 11
22.10999999999984
 21
13.82999999999998
 31
0.0
  0
LINE
  5
4A56
330
49E6
100
AcDbEntity
  8
4-線
100
AcDbLine
 10
11.99999999999988
 20
20.00000000000026
 30
0.0
 11
9.999999999999886
 21
16.00000000000022
 31
0.0
  0
LINE
  5
4A57
330
49E6
100
AcDbEntity
  8
4-線
100
AcDbLine
 10
13.50999999999993
 20
14.33000000000032
 30
0.0
 11
11.99999999999988
 21
20.00000000000028
 31
0.0
  0
LINE
  5
4A58
330
49E6
100
AcDbEntity
  8
4-線
100
AcDbLine
 10
7.999999999999829
 20
20.0
 30
0.0
 11
9.999999999999886
 21
16.0
 31
0.0
  0
LINE
  5
4A59
330
49E6
100
AcDbEntity
  8
4-線
100
AcDbLine
 10
5.999999999999886
 20
16.0
 30
0.0
 11
7.999999999999829
 21
20.0
 31
0.0
  0
LINE
  5
4A5A
330
49E6
100
AcDbEntity
  8
4-線
100
AcDbLine
 10
3.999999999999828
 20
20.0
 30
0.0
 11
5.999999999999886
 21
16.0
 31
0.0
  0
LINE
  5
4A5B
330
49E6
100
AcDbEntity
  8
4-線
100
AcDbLine
 10
1.999999999999885
 20
16.0
 30
0.0
 11
3.999999999999828
 21
20.0
 31
0.0
  0
LINE
  5
4A5C
330
49E6
100
AcDbEntity
  8
4-線
100
AcDbLine
 10
-0.0000000000001705
 20
20.0
 30
0.0
 11
1.999999999999885
 21
16.0
 31
0.0
  0
LINE
  5
4A5D
330
49E6
100
AcDbEntity
  8
4-線
100
AcDbLine
 10
-2.000000000000112
 20
16.0
 30
0.0
 11
-0.0000000000001705
 21
20.0
 31
0.0
  0
LINE
  5
4A5E
330
49E6
100
AcDbEntity
  8
4-線
100
AcDbLine
 10
-4.000000000000169
 20
20.0
 30
0.0
 11
-2.000000000000112
 21
16.0
 31
0.0
  0
LINE
  5
4A5F
330
49E6
100
AcDbEntity
  8
4-線
100
AcDbLine
 10
-6.000000000000111
 20
16.0
 30
0.0
 11
-4.000000000000169
 21
20.0
 31
0.0
  0
LINE
  5
4A60
330
49E6
100
AcDbEntity
  8
4-線
100
AcDbLine
 10
-8.00000000000017
 20
20.0
 30
0.0
 11
-6.000000000000111
 21
16.0
 31
0.0
  0
LINE
  5
4A61
330
49E6
100
AcDbEntity
  8
4-線
100
AcDbLine
 10
-10.00000000000011
 20
16.0
 30
0.0
 11
-8.00000000000017
 21
20.0
 31
0.0
  0
LINE
  5
4A62
330
49E6
100
AcDbEntity
  8
4-線
100
AcDbLine
 10
-12.00000000000017
 20
19.99999999999997
 30
0.0
 11
-10.00000000000011
 21
16.0
 31
0.0
  0
LINE
  5
4A63
330
49E6
100
AcDbEntity
  8
4-線
100
AcDbLine
 10
-13.5100000000001
 20
14.33000000000001
 30
0.0
 11
-12.00000000000017
 21
20.0
 31
0.0
  0
LINE
  5
4A64
330
49E6
100
AcDbEntity
  8
3-線
100
AcDbLine
 10
-9.510000000000104
 20
7.830000000000013
 30
0.0
 11
-0.0000000000000568
 21
7.830000000000013
 31
0.0
  0
CIRCLE
  5
4A65
330
49E6
100
AcDbEntity
  8
3-線
100
AcDbCircle
 10
0.0
 20
0.0
 30
0.0
 40
3.669999999999998
  0
ARC
  5
4A66
330
49E6
100
AcDbEntity
  8
3-線
100
AcDbCircle
 10
-0.0000000000000568
 20
17.97581017647317
 30
0.0
 40
7.305810176473208
100
AcDbArc
 50
214.57381820234
 51
270.0
  0
LINE
  5
4A67
330
49E6
100
AcDbEntity
  8
3-線
100
AcDbLine
 10
-7.840000000000087
 20
8.669999999999959
 30
0.0
 11
12.17000000000001
 21
8.669999999999987
 31
0.0
  0
ARC
  5
4A68
330
49E6
100
AcDbEntity
  8
3-線
100
AcDbCircle
 10
-9.510000000000104
 20
11.82999999999998
 30
0.0
 40
4.0
100
AcDbArc
 50
180.0
 51
270.0
  0
LINE
  5
4A69
330
49E6
100
AcDbEntity
  8
3-線
100
AcDbLine
 10
-13.84000000000003
 20
8.329999999999984
 30
0.0
 11
-13.51000000000005
 21
7.999999999999971
 31
0.0
  0
LINE
  5
4A6A
330
49E6
100
AcDbEntity
  8
3-線
100
AcDbLine
 10
-6.015573149360874
 20
13.82999999999998
 30
0.0
 11
-7.840000000000087
 21
10.66999999999996
 31
0.0
  0
LINE
  5
4A6B
330
49E6
100
AcDbEntity
  8
3-線
100
AcDbLine
 10
-8.680000000000061
 20
7.830000000000013
 30
0.0
 11
-7.840000000000087
 21
8.669999999999959
 31
0.0
  0
LINE
  5
4A6C
330
49E6
100
AcDbEntity
  8
3-線
100
AcDbLine
 10
-7.840000000000087
 20
10.66999999999993
 30
0.0
 11
-7.840000000000087
 21
8.669999999999959
 31
0.0
  0
LINE
  5
4A6D
330
49E6
100
AcDbEntity
  8
3-線
100
AcDbLine
 10
-0.0000000000000568
 20
10.66999999999996
 30
0.0
 11
9.585430403335976
 21
10.66999999999999
 31
0.0
  0
ARC
  5
4A6E
330
49E6
100
AcDbEntity
  8
3-線
100
AcDbCircle
 10
9.585430403335976
 20
6.669999999999986
 30
0.0
 40
4.0
100
AcDbArc
 50
11.86287255747577
 51
90.0
  0
LINE
  5
4A6F
330
49E6
100
AcDbEntity
  8
3-線
100
AcDbLine
 10
7.669999999999959
 20
8.669999999999987
 30
0.0
 11
8.669999999999959
 21
7.669999999999986
 31
0.0
  0
ARC
  5
4A70
330
49E6
100
AcDbEntity
  8
3-線
100
AcDbCircle
 10
12.17000000000001
 20
7.340000000000002
 30
0.0
 40
1.33
100
AcDbArc
 50
0.0
 51
90.0
  0
LINE
  5
4A71
330
49E6
100
AcDbEntity
  8
1-破線
100
AcDbLine
 10
30.99999999999994
 20
8.329999999999984
 30
0.0
 11
31.82999999999993
 21
9.159999999999996
 31
0.0
  0
ARC
  5
4A72
330
49E6
100
AcDbEntity
  8
3-線
100
AcDbCircle
 10
30.99999999999989
 20
12.99999999999997
 30
0.0
 40
0.8299999999999998
100
AcDbArc
 50
0.0
 51
90.0
  0
LINE
  5
4A73
330
49E6
100
AcDbEntity
  8
3-線
100
AcDbLine
 10
23.20999999999987
 20
13.82999999999998
 30
0.0
 11
23.20999999999998
 21
2.867734297315564
 31
0.0
  0
LINE
  5
4A74
330
49E6
100
AcDbEntity
  8
3-線
100
AcDbLine
 10
22.10999999999984
 20
13.82999999999998
 30
0.0
 11
22.10999999999996
 21
2.867734297315564
 31
0.0
  0
ARC
  5
4A75
330
49E6
100
AcDbEntity
  8
3-線
100
AcDbCircle
 10
22.65999999999997
 20
0.0
 30
0.0
 40
2.919999999999998
100
AcDbArc
 50
278.2698581325491
 51
81.73014186745094
  0
ARC
  5
4A76
330
49E6
100
AcDbEntity
  8
3-線
100
AcDbCircle
 10
22.65999999999997
 20
0.0
 30
0.0
 40
2.919999999999998
100
AcDbArc
 50
98.26985813254903
 51
261.7301418674511
  0
LINE
  5
4A77
330
49E6
100
AcDbEntity
  8
3-線
100
AcDbLine
 10
23.20999999999987
 20
13.82999999999998
 30
0.0
 11
30.99999999999989
 21
13.82999999999998
 31
0.0
  0
LINE
  5
4A78
330
49E6
100
AcDbEntity
  8
3-線
100
AcDbLine
 10
23.07999999999987
 20
13.0
 30
0.0
 11
23.20999999999987
 21
13.0
 31
0.0
  0
ARC
  5
4A79
330
49E6
100
AcDbEntity
  8
3-線
100
AcDbCircle
 10
22.65999999999985
 20
13.41999999999998
 30
0.0
 40
0.4200000000000001
100
AcDbArc
 50
0.0
 51
180.0
  0
LINE
  5
4A7A
330
49E6
100
AcDbEntity
  8
3-線
100
AcDbLine
 10
22.10999999999984
 20
13.0
 30
0.0
 11
22.23999999999984
 21
13.0
 31
0.0
  0
MTEXT
  5
4A7B
330
49E6
100
AcDbEntity
  8
1-線
100
AcDbMText
 10
39.3400000000002
 20
29.60488900900131
 30
0.0
 40
3.0
 41
0.0
 71
     5
 72
     1
  1
Ａ
 73
     1
 44
1.0
  0
LINE
  5
4A7C
330
49E6
100
AcDbEntity
  8
1-線
100
AcDbLine
 10
44.34000000000032
 20
27.10488900900131
 30
0.0
 11
34.33999999999997
 21
27.10488900900131
 31
0.0
  0
INSERT
  5
4A7D
330
49E6
100
AcDbEntity
  8
1-線
100
AcDbBlockReference
  2
_Open30
 10
31.83999999999997
 20
27.10488900900131
 30
0.0
 41
2.5
 42
2.5
 43
2.5
 50
180.0
  0
ENDBLK
  5
4A7F
330
49E6
100
AcDbEntity
  8
0
100
AcDbBlockEnd
  0
BLOCK
  5
4F1E
330
4F14
100
AcDbEntity
  8
0
100
AcDbBlockBegin
  2
*D16
 70
     1
 10
0.0
 20
0.0
 30
0.0
  3
*D16
  1

  0
LINE
  5
501B
330
4F14
100
AcDbEntity
  8
1-線
 62
     0
370
    -2
100
AcDbLine
 10
263.7500000000003
 20
176.5000000000001
 30
0.0
 11
263.7500000000003
 21
139.0
 31
0.0
  0
LINE
  5
501C
330
4F14
100
AcDbEntity
  8
1-線
 62
     0
370
    -2
100
AcDbLine
 10
250.0000000000003
 20
166.7233036020131
 30
0.0
 11
250.0000000000003
 21
139.0
 31
0.0
  0
LINE
  5
501D
330
4F14
100
AcDbEntity
  8
1-線
 62
     0
370
    -2
100
AcDbLine
 10
261.2500000000003
 20
140.0
 30
0.0
 11
252.5000000000003
 21
140.0
 31
0.0
  0
INSERT
  5
501E
330
4F14
100
AcDbEntity
  8
1-線
 62
     0
370
    -2
100
AcDbBlockReference
  2
_Open30
 10
263.7500000000003
 20
140.0
 30
0.0
 41
2.5
 42
2.5
 43
2.5
  0
INSERT
  5
501F
330
4F14
100
AcDbEntity
  8
1-線
 62
     0
370
    -2
100
AcDbBlockReference
  2
_Open30
 10
250.0000000000003
 20
140.0
 30
0.0
 41
2.5
 42
2.5
 43
2.5
 50
180.0
  0
MTEXT
  5
5020
330
4F14
100
AcDbEntity
  8
1-線
 62
     0
100
AcDbMText
 10
256.8750000000003
 20
142.5
 30
0.0
 40
3.0
 41
0.0
 71
     5
 72
     1
  1
27.5
 73
     1
 44
1.0
  0
POINT
  5
5021
330
4F14
100
AcDbEntity
  8
Defpoints
 62
     0
100
AcDbPoint
 10
263.7500000000003
 20
176.5000000000001
 30
0.0
  0
POINT
  5
5022
330
4F14
100
AcDbEntity
  8
Defpoints
 62
     0
100
AcDbPoint
 10
250.0000000000003
 20
166.7233036020131
 30
0.0
  0
POINT
  5
5023
330
4F14
100
AcDbEntity
  8
Defpoints
 62
     0
100
AcDbPoint
 10
250.0000000000003
 20
140.0
 30
0.0
  0
ENDBLK
  5
4F1F
330
4F14
100
AcDbEntity
  8
0
100
AcDbBlockEnd
  0
BLOCK
  5
4F38
330
4F2E
100
AcDbEntity
  8
0
100
AcDbBlockBegin
  2
*D17
 70
     1
 10
0.0
 20
0.0
 30
0.0
  3
*D17
  1

  0
LINE
  5
5024
330
4F2E
100
AcDbEntity
  8
1-線
 62
     0
370
    -2
100
AcDbLine
 10
236.2500000000002
 20
184.99
 30
0.0
 11
236.2500000000002
 21
131.0
 31
0.0
  0
LINE
  5
5025
330
4F2E
100
AcDbEntity
  8
1-線
 62
     0
370
    -2
100
AcDbLine
 10
263.7500000000003
 20
176.5000000000001
 30
0.0
 11
263.7500000000003
 21
131.0
 31
0.0
  0
LINE
  5
5026
330
4F2E
100
AcDbEntity
  8
1-線
 62
     0
370
    -2
100
AcDbLine
 10
238.7500000000001
 20
132.0
 30
0.0
 11
261.2500000000003
 21
132.0
 31
0.0
  0
INSERT
  5
5027
330
4F2E
100
AcDbEntity
  8
1-線
 62
     0
370
    -2
100
AcDbBlockReference
  2
_Open30
 10
236.2500000000002
 20
132.0
 30
0.0
 41
2.5
 42
2.5
 43
2.5
 50
180.0
  0
INSERT
  5
5028
330
4F2E
100
AcDbEntity
  8
1-線
 62
     0
370
    -2
100
AcDbBlockReference
  2
_Open30
 10
263.7500000000003
 20
132.0
 30
0.0
 41
2.5
 42
2.5
 43
2.5
  0
MTEXT
  5
5029
330
4F2E
100
AcDbEntity
  8
1-線
 62
     0
100
AcDbMText
 10
250.0000000000002
 20
134.5
 30
0.0
 40
3.0
 41
0.0
 71
     5
 72
     1
  1
55
 73
     1
 44
1.0
  0
POINT
  5
502A
330
4F2E
100
AcDbEntity
  8
Defpoints
 62
     0
100
AcDbPoint
 10
236.2500000000002
 20
184.99
 30
0.0
  0
POINT
  5
502B
330
4F2E
100
AcDbEntity
  8
Defpoints
 62
     0
100
AcDbPoint
 10
263.7500000000003
 20
176.5000000000001
 30
0.0
  0
POINT
  5
502C
330
4F2E
100
AcDbEntity
  8
Defpoints
 62
     0
100
AcDbPoint
 10
263.7500000000003
 20
132.0
 30
0.0
  0
ENDBLK
  5
4F39
330
4F2E
100
AcDbEntity
  8
0
100
AcDbBlockEnd
  0
BLOCK
  5
4F45
330
4F3B
100
AcDbEntity
  8
0
100
AcDbBlockBegin
  2
*D18
 70
     1
 10
0.0
 20
0.0
 30
0.0
  3
*D18
  1

  0
LINE
  5
502D
330
4F3B
100
AcDbEntity
  8
1-線
 62
     0
370
    -2
100
AcDbLine
 10
263.7500000000003
 20
131.0
 30
0.0
 11
263.7500000000003
 21
123.0
 31
0.0
  0
LINE
  5
502E
330
4F3B
100
AcDbEntity
  8
1-線
 62
     0
370
    -2
100
AcDbLine
 10
216.0000000000003
 20
150.3529033131725
 30
0.0
 11
216.0000000000003
 21
123.0
 31
0.0
  0
LINE
  5
502F
330
4F3B
100
AcDbEntity
  8
1-線
 62
     0
370
    -2
100
AcDbLine
 10
261.2500000000003
 20
124.0
 30
0.0
 11
218.5000000000003
 21
124.0
 31
0.0
  0
INSERT
  5
5030
330
4F3B
100
AcDbEntity
  8
1-線
 62
     0
370
    -2
100
AcDbBlockReference
  2
_Open30
 10
263.7500000000003
 20
124.0
 30
0.0
 41
2.5
 42
2.5
 43
2.5
  0
INSERT
  5
5031
330
4F3B
100
AcDbEntity
  8
1-線
 62
     0
370
    -2
100
AcDbBlockReference
  2
_Open30
 10
216.0000000000003
 20
124.0
 30
0.0
 41
2.5
 42
2.5
 43
2.5
 50
180.0
  0
MTEXT
  5
5032
330
4F3B
100
AcDbEntity
  8
1-線
 62
     0
100
AcDbMText
 10
239.8750000000003
 20
126.5
 30
0.0
 40
3.0
 41
0.0
 71
     5
 72
     1
  1
95.5
 73
     1
 44
1.0
  0
POINT
  5
5033
330
4F3B
100
AcDbEntity
  8
Defpoints
 62
     0
100
AcDbPoint
 10
263.7500000000003
 20
131.0
 30
0.0
  0
POINT
  5
5034
330
4F3B
100
AcDbEntity
  8
Defpoints
 62
     0
100
AcDbPoint
 10
216.0000000000003
 20
150.3529033131725
 30
0.0
  0
POINT
  5
5035
330
4F3B
100
AcDbEntity
  8
Defpoints
 62
     0
100
AcDbPoint
 10
216.0000000000003
 20
124.0
 30
0.0
  0
ENDBLK
  5
4F46
330
4F3B
100
AcDbEntity
  8
0
100
AcDbBlockEnd
  0
BLOCK
  5
4F52
330
4F48
100
AcDbEntity
  8
0
100
AcDbBlockBegin
  2
*D19
 70
     1
 10
0.0
 20
0.0
 30
0.0
  3
*D19
  1

  0
LINE
  5
50C6
330
4F48
100
AcDbEntity
  8
1-線
 62
     0
370
    -2
100
AcDbLine
 10
263.7500000000003
 20
124.0
 30
0.0
 11
263.7500000000003
 21
115.0
 31
0.0
  0
LINE
  5
50C7
330
4F48
100
AcDbEntity
  8
1-線
 62
     0
370
    -2
100
AcDbLine
 10
168.2550000000006
 20
144.6800570851566
 30
0.0
 11
168.2550000000006
 21
115.0
 31
0.0
  0
LINE
  5
50C8
330
4F48
100
AcDbEntity
  8
1-線
 62
     0
370
    -2
100
AcDbLine
 10
261.2500000000003
 20
116.0
 30
0.0
 11
170.7550000000005
 21
116.0
 31
0.0
  0
INSERT
  5
50C9
330
4F48
100
AcDbEntity
  8
1-線
 62
     0
370
    -2
100
AcDbBlockReference
  2
_Open30
 10
263.7500000000003
 20
116.0
 30
0.0
 41
2.5
 42
2.5
 43
2.5
  0
INSERT
  5
50CA
330
4F48
100
AcDbEntity
  8
1-線
 62
     0
370
    -2
100
AcDbBlockReference
  2
_Open30
 10
168.2550000000006
 20
116.0
 30
0.0
 41
2.5
 42
2.5
 43
2.5
 50
180.0
  0
MTEXT
  5
50CB
330
4F48
100
AcDbEntity
  8
1-線
 62
     0
100
AcDbMText
 10
216.0025000000004
 20
118.5
 30
0.0
 40
3.0
 41
0.0
 71
     5
 72
     1
  1
191
 73
     1
 44
1.0
  0
POINT
  5
50CC
330
4F48
100
AcDbEntity
  8
Defpoints
 62
     0
100
AcDbPoint
 10
263.7500000000003
 20
124.0
 30
0.0
  0
POINT
  5
50CD
330
4F48
100
AcDbEntity
  8
Defpoints
 62
     0
100
AcDbPoint
 10
168.2550000000006
 20
144.6800570851566
 30
0.0
  0
POINT
  5
50CE
330
4F48
100
AcDbEntity
  8
Defpoints
 62
     0
100
AcDbPoint
 10
168.2550000000006
 20
116.0
 30
0.0
  0
ENDBLK
  5
4F53
330
4F48
100
AcDbEntity
  8
0
100
AcDbBlockEnd
  0
BLOCK
  5
4F5F
330
4F55
100
AcDbEntity
  8
0
100
AcDbBlockBegin
  2
*D20
 70
     1
 10
0.0
 20
0.0
 30
0.0
  3
*D20
  1

  0
LINE
  5
50BD
330
4F55
100
AcDbEntity
  8
1-線
 62
     0
370
    -2
100
AcDbLine
 10
216.0000000000003
 20
150.3529033131725
 30
0.0
 11
216.0000000000003
 21
123.0
 31
0.0
  0
LINE
  5
50BE
330
4F55
100
AcDbEntity
  8
1-線
 62
     0
370
    -2
100
AcDbLine
 10
168.2550000000006
 20
139.0
 30
0.0
 11
168.2550000000006
 21
123.0
 31
0.0
  0
LINE
  5
50BF
330
4F55
100
AcDbEntity
  8
1-線
 62
     0
370
    -2
100
AcDbLine
 10
213.5000000000003
 20
124.0
 30
0.0
 11
170.7550000000005
 21
124.0
 31
0.0
  0
INSERT
  5
50C0
330
4F55
100
AcDbEntity
  8
1-線
 62
     0
370
    -2
100
AcDbBlockReference
  2
_Open30
 10
216.0000000000003
 20
124.0
 30
0.0
 41
2.5
 42
2.5
 43
2.5
  0
INSERT
  5
50C1
330
4F55
100
AcDbEntity
  8
1-線
 62
     0
370
    -2
100
AcDbBlockReference
  2
_Open30
 10
168.2550000000006
 20
124.0
 30
0.0
 41
2.5
 42
2.5
 43
2.5
 50
180.0
  0
MTEXT
  5
50C2
330
4F55
100
AcDbEntity
  8
1-線
 62
     0
100
AcDbMText
 10
192.1275000000004
 20
126.5
 30
0.0
 40
3.0
 41
0.0
 71
     5
 72
     1
  1
95.5
 73
     1
 44
1.0
  0
POINT
  5
50C3
330
4F55
100
AcDbEntity
  8
Defpoints
 62
     0
100
AcDbPoint
 10
216.0000000000003
 20
150.3529033131725
 30
0.0
  0
POINT
  5
50C4
330
4F55
100
AcDbEntity
  8
Defpoints
 62
     0
100
AcDbPoint
 10
168.2550000000006
 20
139.0
 30
0.0
  0
POINT
  5
50C5
330
4F55
100
AcDbEntity
  8
Defpoints
 62
     0
100
AcDbPoint
 10
168.2550000000006
 20
124.0
 30
0.0
  0
ENDBLK
  5
4F60
330
4F55
100
AcDbEntity
  8
0
100
AcDbBlockEnd
  0
BLOCK
  5
4F6C
330
4F62
100
AcDbEntity
  8
0
100
AcDbBlockBegin
  2
*D21
 70
     1
 10
0.0
 20
0.0
 30
0.0
  3
*D21
  1

  0
LINE
  5
50B4
330
4F62
100
AcDbEntity
  8
1-線
 62
     0
370
    -2
100
AcDbLine
 10
195.7500000000002
 20
175.255
 30
0.0
 11
195.7500000000002
 21
131.0
 31
0.0
  0
LINE
  5
50B5
330
4F62
100
AcDbEntity
  8
1-線
 62
     0
370
    -2
100
AcDbLine
 10
168.2550000000006
 20
140.0
 30
0.0
 11
168.2550000000006
 21
131.0
 31
0.0
  0
LINE
  5
50B6
330
4F62
100
AcDbEntity
  8
1-線
 62
     0
370
    -2
100
AcDbLine
 10
193.2500000000002
 20
132.0
 30
0.0
 11
170.7550000000005
 21
132.0
 31
0.0
  0
INSERT
  5
50B7
330
4F62
100
AcDbEntity
  8
1-線
 62
     0
370
    -2
100
AcDbBlockReference
  2
_Open30
 10
195.7500000000002
 20
132.0
 30
0.0
 41
2.5
 42
2.5
 43
2.5
  0
INSERT
  5
50B8
330
4F62
100
AcDbEntity
  8
1-線
 62
     0
370
    -2
100
AcDbBlockReference
  2
_Open30
 10
168.2550000000006
 20
132.0
 30
0.0
 41
2.5
 42
2.5
 43
2.5
 50
180.0
  0
MTEXT
  5
50B9
330
4F62
100
AcDbEntity
  8
1-線
 62
     0
100
AcDbMText
 10
182.0025000000004
 20
134.5
 30
0.0
 40
3.0
 41
0.0
 71
     5
 72
     1
  1
55
 73
     1
 44
1.0
  0
POINT
  5
50BA
330
4F62
100
AcDbEntity
  8
Defpoints
 62
     0
100
AcDbPoint
 10
195.7500000000002
 20
175.255
 30
0.0
  0
POINT
  5
50BB
330
4F62
100
AcDbEntity
  8
Defpoints
 62
     0
100
AcDbPoint
 10
168.2550000000006
 20
140.0
 30
0.0
  0
POINT
  5
50BC
330
4F62
100
AcDbEntity
  8
Defpoints
 62
     0
100
AcDbPoint
 10
168.2550000000006
 20
132.0
 30
0.0
  0
ENDBLK
  5
4F6D
330
4F62
100
AcDbEntity
  8
0
100
AcDbBlockEnd
  0
BLOCK
  5
5010
330
5006
100
AcDbEntity
  8
0
100
AcDbBlockBegin
  2
*D22
 70
     1
 10
0.0
 20
0.0
 30
0.0
  3
*D22
  1

  0
LINE
  5
532D
330
5006
100
AcDbEntity
  8
1-線
 62
     0
370
    -2
100
AcDbLine
 10
182.0050000000004
 20
146.0283633459098
 30
0.0
 11
182.0050000000004
 21
139.0
 31
0.0
  0
LINE
  5
532E
330
5006
100
AcDbEntity
  8
1-線
 62
     0
370
    -2
100
AcDbLine
 10
168.2550000000006
 20
144.6800570851566
 30
0.0
 11
168.2550000000006
 21
139.0
 31
0.0
  0
LINE
  5
532F
330
5006
100
AcDbEntity
  8
1-線
 62
     0
370
    -2
100
AcDbLine
 10
179.5050000000004
 20
140.0
 30
0.0
 11
170.7550000000005
 21
140.0
 31
0.0
  0
INSERT
  5
5330
330
5006
100
AcDbEntity
  8
1-線
 62
     0
370
    -2
100
AcDbBlockReference
  2
_Open30
 10
182.0050000000004
 20
140.0
 30
0.0
 41
2.5
 42
2.5
 43
2.5
  0
INSERT
  5
5331
330
5006
100
AcDbEntity
  8
1-線
 62
     0
370
    -2
100
AcDbBlockReference
  2
_Open30
 10
168.2550000000006
 20
140.0
 30
0.0
 41
2.5
 42
2.5
 43
2.5
 50
180.0
  0
MTEXT
  5
5332
330
5006
100
AcDbEntity
  8
1-線
 62
     0
100
AcDbMText
 10
175.1300000000004
 20
142.5
 30
0.0
 40
3.0
 41
0.0
 71
     5
 72
     1
  1
27.5
 73
     1
 44
1.0
  0
POINT
  5
5333
330
5006
100
AcDbEntity
  8
Defpoints
 62
     0
100
AcDbPoint
 10
182.0050000000004
 20
146.0283633459098
 30
0.0
  0
POINT
  5
5334
330
5006
100
AcDbEntity
  8
Defpoints
 62
     0
100
AcDbPoint
 10
168.2550000000006
 20
144.6800570851566
 30
0.0
  0
POINT
  5
5335
330
5006
100
AcDbEntity
  8
Defpoints
 62
     0
100
AcDbPoint
 10
168.2550000000006
 20
140.0
 30
0.0
  0
ENDBLK
  5
5011
330
5006
100
AcDbEntity
  8
0
100
AcDbBlockEnd
  0
BLOCK
  5
517F
330
5175
100
AcDbEntity
  8
0
100
AcDbBlockBegin
  2
*D23
 70
     1
 10
0.0
 20
0.0
 30
0.0
  3
*D23
  1

  0
LINE
  5
5295
330
5175
100
AcDbEntity
  8
1-線
 62
     0
370
    -2
100
AcDbLine
 10
169.5
 20
208.5
 30
0.0
 11
151.0
 21
208.5
 31
0.0
  0
LINE
  5
5296
330
5175
100
AcDbEntity
  8
1-線
 62
     0
370
    -2
100
AcDbLine
 10
169.5
 20
183.5
 30
0.0
 11
151.0
 21
183.5
 31
0.0
  0
LINE
  5
5297
330
5175
100
AcDbEntity
  8
1-線
 62
     0
370
    -2
100
AcDbLine
 10
152.0
 20
206.0
 30
0.0
 11
152.0
 21
186.0
 31
0.0
  0
INSERT
  5
5298
330
5175
100
AcDbEntity
  8
1-線
 62
     0
370
    -2
100
AcDbBlockReference
  2
_Open30
 10
152.0
 20
208.5
 30
0.0
 41
2.5
 42
2.5
 43
2.5
 50
90.0
  0
INSERT
  5
5299
330
5175
100
AcDbEntity
  8
1-線
 62
     0
370
    -2
100
AcDbBlockReference
  2
_Open30
 10
152.0
 20
183.5
 30
0.0
 41
2.5
 42
2.5
 43
2.5
 50
270.0
  0
MTEXT
  5
529A
330
5175
100
AcDbEntity
  8
1-線
 62
     0
100
AcDbMText
 10
149.5
 20
196.0
 30
0.0
 40
3.0
 41
0.0
 71
     5
 72
     1
  1
\A1;%%c50{\H0.7x;\SH7^ ;}
 11
0.0000000000000001
 21
1.0
 31
0.0
 73
     1
 44
1.0
  0
POINT
  5
529B
330
5175
100
AcDbEntity
  8
Defpoints
 62
     0
100
AcDbPoint
 10
169.5
 20
208.5
 30
0.0
  0
POINT
  5
529C
330
5175
100
AcDbEntity
  8
Defpoints
 62
     0
100
AcDbPoint
 10
169.5
 20
183.5
 30
0.0
  0
POINT
  5
529D
330
5175
100
AcDbEntity
  8
Defpoints
 62
     0
100
AcDbPoint
 10
152.0
 20
183.5
 30
0.0
  0
ENDBLK
  5
5180
330
5175
100
AcDbEntity
  8
0
100
AcDbBlockEnd
  0
BLOCK
  5
518C
330
5181
100
AcDbEntity
  8
0
100
AcDbBlockBegin
  2
*D24
 70
     1
 10
0.0
 20
0.0
 30
0.0
  3
*D24
  1

  0
LINE
  5
52E6
330
5181
100
AcDbEntity
  8
1-線
 62
     0
370
    -2
100
AcDbLine
 10
186.3800000000001
 20
175.2532152380952
 30
0.0
 11
186.3800000000001
 21
147.0
 31
0.0
  0
LINE
  5
52E7
330
5181
100
AcDbEntity
  8
1-線
 62
     0
370
    -2
100
AcDbLine
 10
177.6300000000003
 20
175.2515485714285
 30
0.0
 11
177.6300000000003
 21
147.0
 31
0.0
  0
LINE
  5
52E8
330
5181
100
AcDbEntity
  8
1-線
 62
     0
370
    -2
100
AcDbLine
 10
183.8800000000001
 20
148.0
 30
0.0
 11
180.1300000000003
 21
148.0
 31
0.0
  0
LINE
  5
52E9
330
5181
100
AcDbEntity
  8
1-線
 62
     0
370
    -2
100
AcDbLine
 10
177.6300000000003
 20
148.0
 30
0.0
 11
155.9850000000002
 21
148.0
 31
0.0
  0
INSERT
  5
52EA
330
5181
100
AcDbEntity
  8
1-線
 62
     0
370
    -2
100
AcDbBlockReference
  2
_Open30
 10
186.3800000000001
 20
148.0
 30
0.0
 41
2.5
 42
2.5
 43
2.5
  0
INSERT
  5
52EB
330
5181
100
AcDbEntity
  8
1-線
 62
     0
370
    -2
100
AcDbBlockReference
  2
_Open30
 10
177.6300000000003
 20
148.0
 30
0.0
 41
2.5
 42
2.5
 43
2.5
 50
180.0
  0
MTEXT
  5
52EC
330
5181
100
AcDbEntity
  8
1-線
 62
     0
100
AcDbMText
 10
164.8750000000002
 20
151.45
 30
0.0
 40
3.0
 41
0.0
 71
     5
 72
     1
  1
\A1;%%c17.5{\H0.7x;\SH8^ ｍ6;}
 73
     1
 44
1.0
  0
POINT
  5
52ED
330
5181
100
AcDbEntity
  8
Defpoints
 62
     0
100
AcDbPoint
 10
186.3800000000001
 20
175.2532152380952
 30
0.0
  0
POINT
  5
52EE
330
5181
100
AcDbEntity
  8
Defpoints
 62
     0
100
AcDbPoint
 10
177.6300000000003
 20
175.2515485714285
 30
0.0
  0
POINT
  5
52EF
330
5181
100
AcDbEntity
  8
Defpoints
 62
     0
100
AcDbPoint
 10
177.6300000000003
 20
148.0
 30
0.0
  0
ENDBLK
  5
518D
330
5181
100
AcDbEntity
  8
0
100
AcDbBlockEnd
  0
BLOCK
  5
5198
330
518E
100
AcDbEntity
  8
0
100
AcDbBlockBegin
  2
*D25
 70
     1
 10
0.0
 20
0.0
 30
0.0
  3
*D25
  1

  0
LINE
  5
52B9
330
518E
100
AcDbEntity
  8
1-線
 62
     0
370
    -2
100
AcDbLine
 10
262.5100000000001
 20
208.5
 30
0.0
 11
285.0000000000001
 21
208.5
 31
0.0
  0
LINE
  5
52BA
330
518E
100
AcDbEntity
  8
1-線
 62
     0
370
    -2
100
AcDbLine
 10
262.5100000000001
 20
183.5
 30
0.0
 11
285.0000000000001
 21
183.5
 31
0.0
  0
LINE
  5
52BB
330
518E
100
AcDbEntity
  8
1-線
 62
     0
370
    -2
100
AcDbLine
 10
284.0000000000001
 20
206.0
 30
0.0
 11
284.0000000000001
 21
186.0
 31
0.0
  0
INSERT
  5
52BC
330
518E
100
AcDbEntity
  8
1-線
 62
     0
370
    -2
100
AcDbBlockReference
  2
_Open30
 10
284.0000000000001
 20
208.5
 30
0.0
 41
2.5
 42
2.5
 43
2.5
 50
90.0
  0
INSERT
  5
52BD
330
518E
100
AcDbEntity
  8
1-線
 62
     0
370
    -2
100
AcDbBlockReference
  2
_Open30
 10
284.0000000000001
 20
183.5
 30
0.0
 41
2.5
 42
2.5
 43
2.5
 50
270.0
  0
MTEXT
  5
52BE
330
518E
100
AcDbEntity
  8
1-線
 62
     0
100
AcDbMText
 10
281.5
 20
196.0
 30
0.0
 40
3.0
 41
0.0
 71
     5
 72
     1
  1
\A1;%%c50{\H0.7x;\SH7^ ;}
 11
0.0000000000000001
 21
1.0
 31
0.0
 73
     1
 44
1.0
  0
POINT
  5
52BF
330
518E
100
AcDbEntity
  8
Defpoints
 62
     0
100
AcDbPoint
 10
262.5100000000001
 20
208.5
 30
0.0
  0
POINT
  5
52C0
330
518E
100
AcDbEntity
  8
Defpoints
 62
     0
100
AcDbPoint
 10
262.5100000000001
 20
183.5
 30
0.0
  0
POINT
  5
52C1
330
518E
100
AcDbEntity
  8
Defpoints
 62
     0
100
AcDbPoint
 10
284.0000000000001
 20
183.5
 30
0.0
  0
ENDBLK
  5
5199
330
518E
100
AcDbEntity
  8
0
100
AcDbBlockEnd
  0
BLOCK
  5
534C
330
5342
100
AcDbEntity
  8
0
100
AcDbBlockBegin
  2
*D26
 70
     1
 10
0.0
 20
0.0
 30
0.0
  3
*D26
  1

  0
LINE
  5
534E
330
5342
100
AcDbEntity
  8
1-線
 62
     0
370
    -2
100
AcDbLine
 10
122.9799999999998
 20
220.9999999999993
 30
0.0
 11
82.31580915492477
 21
220.9999999999993
 31
0.0
  0
LINE
  5
534F
330
5342
100
AcDbEntity
  8
1-線
 62
     0
370
    -2
100
AcDbLine
 10
122.9800000000001
 20
170.9999999999993
 30
0.0
 11
82.31580915492477
 21
170.9999999999993
 31
0.0
  0
LINE
  5
5350
330
5342
100
AcDbEntity
  8
1-線
 62
     0
370
    -2
100
AcDbLine
 10
83.31580915492478
 20
218.4999999999993
 30
0.0
 11
83.31580915492478
 21
173.4999999999994
 31
0.0
  0
INSERT
  5
5351
330
5342
100
AcDbEntity
  8
1-線
 62
     0
370
    -2
100
AcDbBlockReference
  2
_Open30
 10
83.31580915492478
 20
220.9999999999993
 30
0.0
 41
2.5
 42
2.5
 43
2.5
 50
90.0
  0
INSERT
  5
5352
330
5342
100
AcDbEntity
  8
1-線
 62
     0
370
    -2
100
AcDbBlockReference
  2
_Open30
 10
83.31580915492478
 20
170.9999999999993
 30
0.0
 41
2.5
 42
2.5
 43
2.5
 50
270.0
  0
MTEXT
  5
5353
330
5342
100
AcDbEntity
  8
1-線
 62
     0
100
AcDbMText
 10
80.81580915492475
 20
195.9999999999993
 30
0.0
 40
3.0
 41
0.0
 71
     5
 72
     1
  1
50
 11
0.0000000000000001
 21
1.0
 31
0.0
 73
     1
 44
1.0
  0
POINT
  5
5354
330
5342
100
AcDbEntity
  8
Defpoints
 62
     0
100
AcDbPoint
 10
122.9799999999998
 20
220.9999999999993
 30
0.0
  0
POINT
  5
5355
330
5342
100
AcDbEntity
  8
Defpoints
 62
     0
100
AcDbPoint
 10
122.9800000000001
 20
170.9999999999993
 30
0.0
  0
POINT
  5
5356
330
5342
100
AcDbEntity
  8
Defpoints
 62
     0
100
AcDbPoint
 10
83.31580915492478
 20
170.9999999999993
 30
0.0
  0
ENDBLK
  5
534D
330
5342
100
AcDbEntity
  8
0
100
AcDbBlockEnd
  0
BLOCK
  5
5362
330
5358
100
AcDbEntity
  8
0
100
AcDbBlockBegin
  2
*D27
 70
     1
 10
0.0
 20
0.0
 30
0.0
  3
*D27
  1

  0
LINE
  5
5359
330
5358
100
AcDbEntity
  8
1-線
 62
     0
370
    -2
100
AcDbLine
 10
0.0
 20
255.9999999999993
 30
0.0
 11
0.0000000000000012
 21
274.989520395626
 31
0.0
  0
LINE
  5
535A
330
5358
100
AcDbEntity
  8
1-線
 62
     0
370
    -2
100
AcDbLine
 10
215.9999999999997
 20
268.1281420943039
 30
0.0
 11
215.9999999999997
 21
274.989520395626
 31
0.0
  0
LINE
  5
535B
330
5358
100
AcDbEntity
  8
1-線
 62
     0
370
    -2
100
AcDbLine
 10
2.5
 20
273.989520395626
 30
0.0
 11
213.4999999999998
 21
273.989520395626
 31
0.0
  0
INSERT
  5
535C
330
5358
100
AcDbEntity
  8
1-線
 62
     0
370
    -2
100
AcDbBlockReference
  2
_Open30
 10
0.0000000000000011
 20
273.989520395626
 30
0.0
 41
2.5
 42
2.5
 43
2.5
 50
180.0
  0
INSERT
  5
535D
330
5358
100
AcDbEntity
  8
1-線
 62
     0
370
    -2
100
AcDbBlockReference
  2
_Open30
 10
215.9999999999997
 20
273.989520395626
 30
0.0
 41
2.5
 42
2.5
 43
2.5
  0
MTEXT
  5
535E
330
5358
100
AcDbEntity
  8
1-線
 62
     0
100
AcDbMText
 10
107.9999999999998
 20
276.4895203956259
 30
0.0
 40
3.0
 41
0.0
 71
     5
 72
     1
  1
216
 73
     1
 44
1.0
  0
POINT
  5
535F
330
5358
100
AcDbEntity
  8
Defpoints
 62
     0
100
AcDbPoint
 10
0.0
 20
255.9999999999993
 30
0.0
  0
POINT
  5
5360
330
5358
100
AcDbEntity
  8
Defpoints
 62
     0
100
AcDbPoint
 10
215.9999999999997
 20
268.1281420943039
 30
0.0
  0
POINT
  5
5361
330
5358
100
AcDbEntity
  8
Defpoints
 62
     0
100
AcDbPoint
 10
215.9999999999997
 20
273.989520395626
 30
0.0
  0
ENDBLK
  5
5363
330
5358
100
AcDbEntity
  8
0
100
AcDbBlockEnd
  0
BLOCK
  5
536F
330
5365
100
AcDbEntity
  8
0
100
AcDbBlockBegin
  2
*D28
 70
     1
 10
0.0
 20
0.0
 30
0.0
  3
*D28
  1

  0
LINE
  5
5366
330
5365
100
AcDbEntity
  8
1-線
 62
     0
370
    -2
100
AcDbLine
 10
416.0
 20
256.000000000005
 30
0.0
 11
416.0
 21
277.6633175467225
 31
0.0
  0
LINE
  5
5367
330
5365
100
AcDbEntity
  8
1-線
 62
     0
370
    -2
100
AcDbLine
 10
215.9999999999997
 20
274.989520395626
 30
0.0
 11
215.9999999999997
 21
277.6633175467225
 31
0.0
  0
LINE
  5
5368
330
5365
100
AcDbEntity
  8
1-線
 62
     0
370
    -2
100
AcDbLine
 10
413.4999999999998
 20
276.6633175467225
 30
0.0
 11
218.4999999999997
 21
276.6633175467225
 31
0.0
  0
INSERT
  5
5369
330
5365
100
AcDbEntity
  8
1-線
 62
     0
370
    -2
100
AcDbBlockReference
  2
_Open30
 10
416.0
 20
276.6633175467225
 30
0.0
 41
2.5
 42
2.5
 43
2.5
  0
INSERT
  5
536A
330
5365
100
AcDbEntity
  8
1-線
 62
     0
370
    -2
100
AcDbBlockReference
  2
_Open30
 10
215.9999999999997
 20
276.6633175467225
 30
0.0
 41
2.5
 42
2.5
 43
2.5
 50
180.0
  0
MTEXT
  5
536B
330
5365
100
AcDbEntity
  8
1-線
 62
     0
100
AcDbMText
 10
315.9999999999999
 20
279.1633175467225
 30
0.0
 40
3.0
 41
0.0
 71
     5
 72
     1
  1
200
 73
     1
 44
1.0
  0
POINT
  5
536C
330
5365
100
AcDbEntity
  8
Defpoints
 62
     0
100
AcDbPoint
 10
416.0
 20
256.000000000005
 30
0.0
  0
POINT
  5
536D
330
5365
100
AcDbEntity
  8
Defpoints
 62
     0
100
AcDbPoint
 10
215.9999999999997
 20
274.989520395626
 30
0.0
  0
POINT
  5
536E
330
5365
100
AcDbEntity
  8
Defpoints
 62
     0
100
AcDbPoint
 10
215.9999999999997
 20
276.6633175467225
 30
0.0
  0
ENDBLK
  5
5370
330
5365
100
AcDbEntity
  8
0
100
AcDbBlockEnd
  0
BLOCK
  5
538A
330
5380
100
AcDbEntity
  8
0
100
AcDbBlockBegin
  2
*D29
 70
     1
 10
0.0
 20
0.0
 30
0.0
  3
*D29
  1

  0
LINE
  5
5381
330
5380
100
AcDbEntity
  8
1-線
 62
     0
370
    -2
100
AcDbLine
 10
8.000000000000026
 20
255.9999999999993
 30
0.0
 11
8.00000000000003
 21
279.0002164903086
 31
0.0
  0
LINE
  5
5382
330
5380
100
AcDbEntity
  8
1-線
 62
     0
370
    -2
100
AcDbLine
 10
215.9999999999997
 20
268.1281420943039
 30
0.0
 11
215.9999999999997
 21
279.0002164903086
 31
0.0
  0
LINE
  5
5383
330
5380
100
AcDbEntity
  8
1-線
 62
     0
370
    -2
100
AcDbLine
 10
10.50000000000003
 20
278.0002164903086
 30
0.0
 11
213.4999999999998
 21
278.0002164903086
 31
0.0
  0
INSERT
  5
5384
330
5380
100
AcDbEntity
  8
1-線
 62
     0
370
    -2
100
AcDbBlockReference
  2
_Open30
 10
8.00000000000003
 20
278.0002164903086
 30
0.0
 41
2.5
 42
2.5
 43
2.5
 50
180.0
  0
INSERT
  5
5385
330
5380
100
AcDbEntity
  8
1-線
 62
     0
370
    -2
100
AcDbBlockReference
  2
_Open30
 10
215.9999999999997
 20
278.0002164903086
 30
0.0
 41
2.5
 42
2.5
 43
2.5
  0
MTEXT
  5
5386
330
5380
100
AcDbEntity
  8
1-線
 62
     0
100
AcDbMText
 10
111.9999999999999
 20
280.5002164903086
 30
0.0
 40
3.0
 41
0.0
 71
     5
 72
     1
  1
208
 73
     1
 44
1.0
  0
POINT
  5
5387
330
5380
100
AcDbEntity
  8
Defpoints
 62
     0
100
AcDbPoint
 10
8.000000000000026
 20
255.9999999999993
 30
0.0
  0
POINT
  5
5388
330
5380
100
AcDbEntity
  8
Defpoints
 62
     0
100
AcDbPoint
 10
215.9999999999997
 20
268.1281420943039
 30
0.0
  0
POINT
  5
5389
330
5380
100
AcDbEntity
  8
Defpoints
 62
     0
100
AcDbPoint
 10
215.9999999999997
 20
278.0002164903086
 30
0.0
  0
ENDBLK
  5
538B
330
5380
100
AcDbEntity
  8
0
100
AcDbBlockEnd
  0
ENDSEC
  0
SECTION
  2
ENTITIES
  0
MTEXT
  5
E68
330
1F
100
AcDbEntity
  8
1-線
100
AcDbMText
 10
312.9841260005437
 20
164.7217985525683
 30
0.0
 40
3.0
 41
15.0
 71
     7
 72
     1
  1

 73
     1
 44
1.0
  0
CIRCLE
  5
48FB
330
1F
100
AcDbEntity
  8
3-線
100
AcDbCircle
 10
8.0
 20
195.9999999999992
 30
0.0
 40
41.49
  0
CIRCLE
  5
48FC
330
1F
100
AcDbEntity
  8
3-線
100
AcDbCircle
 10
8.0
 20
195.9999999999992
 30
0.0
 40
24.99
  0
CIRCLE
  5
48FD
330
1F
100
AcDbEntity
  8
3-線
100
AcDbCircle
 10
8.0
 20
195.9999999999992
 30
0.0
 40
27.51
  0
LINE
  5
48FE
330
1F
100
AcDbEntity
  8
3-線
100
AcDbLine
 10
-0.7600000000002467
 20
219.4043265231017
 30
0.0
 11
-0.7599999999999625
 21
181.989999999999
 31
0.0
  0
LINE
  5
48FF
330
1F
100
AcDbEntity
  8
3-線
100
AcDbLine
 10
16.75999999999968
 20
219.404326523102
 30
0.0
 11
16.76000000000013
 21
181.989999999999
 31
0.0
  0
LINE
  5
4901
330
1F
100
AcDbEntity
  8
3-線
100
AcDbLine
 10
-0.7599999999999058
 20
181.989999999999
 30
0.0
 11
16.76000000000002
 21
181.989999999999
 31
0.0
  0
LINE
  5
4902
330
1F
100
AcDbEntity
  8
3-線
100
AcDbLine
 10
1.760000000000359
 20
179.4699999999989
 30
0.0
 11
14.24000000000026
 21
179.4699999999993
 31
0.0
  0
LINE
  5
4904
330
1F
100
AcDbEntity
  8
3-線
100
AcDbLine
 10
14.24000000000026
 20
179.4699999999993
 30
0.0
 11
14.24000000000038
 21
171.8016012926468
 31
0.0
  0
LINE
  5
4905
330
1F
100
AcDbEntity
  8
3-線
100
AcDbLine
 10
16.76000000000002
 20
181.989999999999
 30
0.0
 11
14.24000000000026
 21
179.4699999999993
 31
0.0
  0
LINE
  5
4906
330
1F
100
AcDbEntity
  8
3-線
100
AcDbLine
 10
1.760000000000359
 20
179.4699999999989
 30
0.0
 11
1.760000000000359
 21
171.8016012926466
 31
0.0
  0
LINE
  5
4907
330
1F
100
AcDbEntity
  8
3-線
100
AcDbLine
 10
1.760000000000359
 20
179.4699999999989
 30
0.0
 11
-0.7599999999999058
 21
181.989999999999
 31
0.0
  0
CIRCLE
  5
4977
330
1F
100
AcDbEntity
  8
3-線
100
AcDbCircle
 10
416.0
 20
196.000000000005
 30
0.0
 40
27.51
  0
CIRCLE
  5
4978
330
1F
100
AcDbEntity
  8
3-線
100
AcDbCircle
 10
416.0
 20
196.000000000005
 30
0.0
 40
24.99
  0
CIRCLE
  5
4979
330
1F
100
AcDbEntity
  8
3-線
100
AcDbCircle
 10
416.0
 20
196.000000000005
 30
0.0
 40
41.49
  0
LINE
  5
497A
330
1F
100
AcDbEntity
  8
3-線
100
AcDbLine
 10
392.5956734768973
 20
204.7600000000047
 30
0.0
 11
430.0100000000001
 21
204.7600000000051
 31
0.0
  0
LINE
  5
497B
330
1F
100
AcDbEntity
  8
3-線
100
AcDbLine
 10
392.5956734768977
 20
187.2400000000047
 30
0.0
 11
430.0100000000001
 21
187.240000000005
 31
0.0
  0
LINE
  5
497C
330
1F
100
AcDbEntity
  8
3-線
100
AcDbLine
 10
430.0100000000001
 20
187.2400000000051
 30
0.0
 11
430.0100000000001
 21
204.7600000000051
 31
0.0
  0
LINE
  5
497D
330
1F
100
AcDbEntity
  8
3-線
100
AcDbLine
 10
432.5300000000003
 20
189.7600000000054
 30
0.0
 11
432.5299999999998
 21
202.2400000000053
 31
0.0
  0
LINE
  5
497E
330
1F
100
AcDbEntity
  8
3-線
100
AcDbLine
 10
432.5300000000003
 20
189.7600000000054
 30
0.0
 11
430.0100000000001
 21
187.2400000000051
 31
0.0
  0
LINE
  5
497F
330
1F
100
AcDbEntity
  8
3-線
100
AcDbLine
 10
432.5300000000003
 20
189.7600000000054
 30
0.0
 11
440.1983987073525
 21
189.7600000000054
 31
0.0
  0
LINE
  5
4980
330
1F
100
AcDbEntity
  8
3-線
100
AcDbLine
 10
430.0100000000001
 20
204.7600000000051
 30
0.0
 11
432.5299999999998
 21
202.2400000000053
 31
0.0
  0
LINE
  5
4981
330
1F
100
AcDbEntity
  8
3-線
100
AcDbLine
 10
432.5299999999998
 20
202.2400000000053
 30
0.0
 11
440.1983987073523
 21
202.2400000000053
 31
0.0
  0
LINE
  5
4A92
330
1F
100
AcDbEntity
  8
3-線
100
AcDbLine
 10
149.6700000000005
 20
154.4999999999999
 30
0.0
 11
175.5000000000004
 21
154.4999999999999
 31
0.0
  0
LINE
  5
4A93
330
1F
100
AcDbEntity
  8
3-線
100
AcDbLine
 10
149.6699999999997
 20
237.5
 30
0.0
 11
175.4999999999997
 21
237.5
 31
0.0
  0
LINE
  5
4A94
330
1F
100
AcDbEntity
  8
3-線
100
AcDbLine
 10
141.7700000000005
 20
179.4699999999998
 30
0.0
 11
139.2500000000002
 21
181.9899999999999
 31
0.0
  0
LINE
  5
4A95
330
1F
100
AcDbEntity
  8
3-線
100
AcDbLine
 10
156.7700000000002
 20
181.9899999999999
 30
0.0
 11
154.2500000000004
 21
179.4700000000001
 31
0.0
  0
LINE
  5
4A96
330
1F
100
AcDbEntity
  8
3-線
100
AcDbLine
 10
156.7699999999996
 20
237.5
 30
0.0
 11
156.7700000000002
 21
181.9899999999999
 31
0.0
  0
LINE
  5
4A97
330
1F
100
AcDbEntity
  8
3-線
100
AcDbLine
 10
139.2499999999997
 20
237.5
 30
0.0
 11
139.2500000000002
 21
181.9899999999999
 31
0.0
  0
LINE
  5
4A99
330
1F
100
AcDbEntity
  8
3-線
100
AcDbLine
 10
120.5099999999998
 20
235.0099999999999
 30
0.0
 11
120.5100000000005
 21
157.0
 31
0.0
  0
LINE
  5
4A9F
330
1F
100
AcDbEntity
  8
3-線
100
AcDbLine
 10
123.0000000000004
 20
154.4999999999998
 30
0.0
 11
146.3700000000005
 21
154.4999999999998
 31
0.0
  0
ARC
  5
4AA0
330
1F
100
AcDbEntity
  8
3-線
100
AcDbCircle
 10
123.0000000000004
 20
156.9899999999999
 30
0.0
 40
2.489999999999999
100
AcDbArc
 50
180.0
 51
270.0
  0
LINE
  5
4AA3
330
1F
100
AcDbEntity
  8
3-線
100
AcDbLine
 10
141.7700000000005
 20
179.4699999999998
 30
0.0
 11
141.7700000000005
 21
157.0000000000001
 31
0.0
  0
LINE
  5
4AA4
330
1F
100
AcDbEntity
  8
3-線
100
AcDbLine
 10
154.2500000000004
 20
179.4700000000001
 30
0.0
 11
154.2500000000006
 21
157.0000000000001
 31
0.0
  0
LINE
  5
4AA5
330
1F
100
AcDbEntity
  8
3-線
100
AcDbLine
 10
141.7700000000005
 20
156.99
 30
0.0
 11
154.2500000000006
 21
156.99
 31
0.0
  0
CIRCLE
  5
4AA6
330
1F
100
AcDbEntity
  8
3-線
100
AcDbCircle
 10
148.0100000000005
 20
155.7300000000002
 30
0.0
 40
1.26
  0
LINE
  5
4AA7
330
1F
100
AcDbEntity
  8
3-線
100
AcDbLine
 10
149.6600000000005
 20
156.99
 30
0.0
 11
149.6600000000005
 21
154.5
 31
0.0
  0
LINE
  5
4AA8
330
1F
100
AcDbEntity
  8
3-線
100
AcDbLine
 10
146.3600000000004
 20
156.99
 30
0.0
 11
146.3600000000004
 21
154.4999999999999
 31
0.0
  0
LINE
  5
4AA9
330
1F
100
AcDbEntity
  8
3-線
100
AcDbLine
 10
141.7700000000005
 20
179.4699999999998
 30
0.0
 11
154.2500000000004
 21
179.4700000000001
 31
0.0
  0
LINE
  5
4AAE
330
1F
100
AcDbEntity
  8
3-線
100
AcDbLine
 10
139.2500000000002
 20
181.9899999999999
 30
0.0
 11
156.7700000000002
 21
181.9899999999999
 31
0.0
  0
LINE
  5
4AB0
330
1F
100
AcDbEntity
  8
3-線
100
AcDbLine
 10
122.9999999999997
 20
237.5
 30
0.0
 11
146.3699999999996
 21
237.5
 31
0.0
  0
ARC
  5
4AB2
330
1F
100
AcDbEntity
  8
3-線
100
AcDbCircle
 10
122.9999999999997
 20
235.0099999999999
 30
0.0
 40
2.489999999999999
100
AcDbArc
 50
90.0
 51
180.0
  0
LINE
  5
4AB4
330
1F
100
AcDbEntity
  8
3-線
100
AcDbLine
 10
139.2499999999997
 20
235.01
 30
0.0
 11
156.7699999999996
 21
235.01
 31
0.0
  0
CIRCLE
  5
4AB5
330
1F
100
AcDbEntity
  8
3-線
100
AcDbCircle
 10
148.0099999999998
 20
236.2699999999999
 30
0.0
 40
1.26
  0
LINE
  5
4AB6
330
1F
100
AcDbEntity
  8
3-線
100
AcDbLine
 10
149.6599999999996
 20
237.5000000000001
 30
0.0
 11
149.6599999999996
 21
235.01
 31
0.0
  0
LINE
  5
4AB7
330
1F
100
AcDbEntity
  8
3-線
100
AcDbLine
 10
146.3599999999996
 20
237.5000000000001
 30
0.0
 11
146.3599999999996
 21
235.01
 31
0.0
  0
LINE
  5
4AB8
330
1F
100
AcDbEntity
  8
3-線
100
AcDbLine
 10
234.0167194480825
 20
211.0724225103029
 30
0.0
 11
234.0167194480825
 21
180.9275774896971
 31
0.0
  0
ARC
  5
4AB9
330
1F
100
AcDbEntity
  8
3-線
100
AcDbCircle
 10
216.0
 20
196.0
 30
0.0
 40
23.49
100
AcDbArc
 50
270.0
 51
90.0
  0
LINE
  5
4ABA
330
1F
100
AcDbEntity
  8
3-線
100
AcDbLine
 10
242.0100000000001
 20
219.0099999999999
 30
0.0
 11
242.0100000000004
 21
172.99
 31
0.0
  0
LINE
  5
4ABD
330
1F
100
AcDbEntity
  8
3-線
100
AcDbLine
 10
285.6500000000003
 20
187.3967971080533
 30
0.0
 11
285.6500000000005
 21
154.5100000000002
 31
0.0
  0
LINE
  5
4ABE
330
1F
100
AcDbEntity
  8
3-線
100
AcDbLine
 10
282.3500000000002
 20
187.3967971080533
 30
0.0
 11
282.3500000000006
 21
154.5100000000002
 31
0.0
  0
LINE
  5
4ABF
330
1F
100
AcDbEntity
  8
3-線
100
AcDbLine
 10
282.7399999999999
 20
236.2699999999998
 30
0.0
 11
282.7400000000008
 21
155.7400000000001
 31
0.0
  0
LINE
  5
4AC0
330
1F
100
AcDbEntity
  8
3-線
100
AcDbLine
 10
285.26
 20
236.2699999999998
 30
0.0
 11
285.2600000000008
 21
155.7400000000001
 31
0.0
  0
LINE
  5
4AC2
330
1F
100
AcDbEntity
  8
1-破線
100
AcDbLine
 10
309.01
 20
221.0
 30
0.0
 11
309.0100000000003
 21
171.0
 31
0.0
  0
LINE
  5
4AC3
330
1F
100
AcDbEntity
  8
3-線
100
AcDbLine
 10
256.4999999999999
 20
218.4768408655336
 30
0.0
 11
256.5000000000002
 21
173.5231591344678
 31
0.0
  0
LINE
  5
4AC4
330
1F
100
AcDbEntity
  8
3-線
100
AcDbLine
 10
175.4999999999997
 20
237.5
 30
0.0
 11
175.5000000000004
 21
154.51
 31
0.0
  0
LINE
  5
4AC5
330
1F
100
AcDbEntity
  8
3-線
100
AcDbLine
 10
311.4999999999998
 20
235.0099999999999
 30
0.0
 11
311.5000000000005
 21
157.0000000000002
 31
0.0
  0
LINE
  5
4AC9
330
1F
100
AcDbEntity
  8
3-線
100
AcDbLine
 10
197.9590540546096
 20
154.5
 30
0.0
 11
282.3300000000003
 21
154.5
 31
0.0
  0
LINE
  5
4ACC
330
1F
100
AcDbEntity
  8
3-線
100
AcDbLine
 10
187.4700000000002
 20
172.5099999999998
 30
0.0
 11
216.0000000000002
 21
172.5099999999998
 31
0.0
  0
ARC
  5
4ACD
330
1F
100
AcDbEntity
  8
3-線
100
AcDbCircle
 10
216.0000000000005
 20
142.0725694705788
 30
0.0
 40
21.91743052942092
100
AcDbArc
 50
90.0
 51
145.4261817976576
  0
LINE
  5
4ACE
330
1F
100
AcDbEntity
  8
3-線
100
AcDbLine
 10
192.48
 20
169.9900000000001
 30
0.0
 11
252.5100000000001
 21
169.9900000000001
 31
0.0
  0
ARC
  5
4AD5
330
1F
100
AcDbEntity
  8
3-線
100
AcDbCircle
 10
187.5000000000002
 20
160.51
 30
0.0
 40
12.0
100
AcDbArc
 50
90.0
 51
180.0
  0
LINE
  5
4AD7
330
1F
100
AcDbEntity
  8
3-線
100
AcDbLine
 10
192.48
 20
163.9899999999998
 30
0.0
 11
197.9590540546096
 21
154.5
 31
0.0
  0
LINE
  5
4AD8
330
1F
100
AcDbEntity
  8
3-線
100
AcDbLine
 10
189.96
 20
172.5099999999998
 30
0.0
 11
192.4800000000002
 21
169.99
 31
0.0
  0
LINE
  5
4AD9
330
1F
100
AcDbEntity
  8
3-線
100
AcDbLine
 10
192.48
 20
169.9900000000001
 30
0.0
 11
192.48
 21
163.9899999999998
 31
0.0
  0
LINE
  5
4AE1
330
1F
100
AcDbEntity
  8
3-線
100
AcDbLine
 10
216.0000000000005
 20
163.99
 30
0.0
 11
239.5200000000004
 21
163.99
 31
0.0
  0
ARC
  5
4AE2
330
1F
100
AcDbEntity
  8
3-線
100
AcDbCircle
 10
244.7562912100079
 20
175.99
 30
0.0
 40
12.0
100
AcDbArc
 50
270.0
 51
348.1371274425292
  0
LINE
  5
4AE3
330
1F
100
AcDbEntity
  8
3-線
100
AcDbLine
 10
239.5200000000004
 20
163.9900000000001
 30
0.0
 11
244.7562912100079
 21
163.9900000000001
 31
0.0
  0
LINE
  5
4AE4
330
1F
100
AcDbEntity
  8
3-線
100
AcDbLine
 10
242.0100000000002
 20
172.99
 30
0.0
 11
239.0100000000002
 21
169.9900000000001
 31
0.0
  0
ARC
  5
4AE5
330
1F
100
AcDbEntity
  8
3-線
100
AcDbCircle
 10
252.5100000000001
 20
173.9800000000002
 30
0.0
 40
3.99
100
AcDbArc
 50
270.0
 51
0.0
  0
LINE
  5
4AE8
330
1F
100
AcDbEntity
  8
1-破線
100
AcDbLine
 10
309.0200000000002
 20
171.0
 30
0.0
 11
311.5000000000002
 21
168.5200000000001
 31
0.0
  0
ARC
  5
4AE9
330
1F
100
AcDbEntity
  8
3-線
100
AcDbCircle
 10
309.0100000000004
 20
156.9900000000002
 30
0.0
 40
2.489999999999999
100
AcDbArc
 50
270.0
 51
0.0
  0
LINE
  5
4AEA
330
1F
100
AcDbEntity
  8
3-線
100
AcDbLine
 10
285.6500000000005
 20
154.5
 30
0.0
 11
309.0100000000004
 21
154.5
 31
0.0
  0
LINE
  5
4AEB
330
1F
100
AcDbEntity
  8
3-線
100
AcDbLine
 10
285.2600000000008
 20
156.9899999999999
 30
0.0
 11
285.6500000000007
 21
156.9899999999999
 31
0.0
  0
ARC
  5
4AEC
330
1F
100
AcDbEntity
  8
3-線
100
AcDbCircle
 10
284.0000000000006
 20
155.7300000000001
 30
0.0
 40
1.26
100
AcDbArc
 50
180.0
 51
0.0
  0
LINE
  5
4AED
330
1F
100
AcDbEntity
  8
3-線
100
AcDbLine
 10
282.3500000000006
 20
156.9899999999999
 30
0.0
 11
282.7400000000008
 21
156.9899999999999
 31
0.0
  0
LINE
  5
4AF0
330
1F
100
AcDbEntity
  8
3-線
100
AcDbLine
 10
197.9590540546092
 20
237.4999999999999
 30
0.0
 11
282.3499999999998
 21
237.5
 31
0.0
  0
LINE
  5
4AFF
330
1F
100
AcDbEntity
  8
3-線
100
AcDbLine
 10
187.4699999999997
 20
219.49
 30
0.0
 11
215.9999999999999
 21
219.49
 31
0.0
  0
CIRCLE
  5
4B00
330
1F
100
AcDbEntity
  8
3-線
100
AcDbCircle
 10
216.0
 20
196.0
 30
0.0
 40
11.01
  0
ARC
  5
4B01
330
1F
100
AcDbEntity
  8
3-線
100
AcDbCircle
 10
215.9999999999999
 20
249.9274305294195
 30
0.0
 40
21.91743052941963
100
AcDbArc
 50
214.5738182023387
 51
270.0
  0
LINE
  5
4B02
330
1F
100
AcDbEntity
  8
3-線
100
AcDbLine
 10
192.4799999999997
 20
222.0099999999999
 30
0.0
 11
252.5100000000001
 21
222.0099999999999
 31
0.0
  0
ARC
  5
4B03
330
1F
100
AcDbEntity
  8
3-線
100
AcDbCircle
 10
187.4999999999997
 20
231.49
 30
0.0
 40
12.0
100
AcDbArc
 50
180.0
 51
270.0
  0
LINE
  5
4B05
330
1F
100
AcDbEntity
  8
3-線
100
AcDbLine
 10
197.9590540546092
 20
237.4999999999999
 30
0.0
 11
192.4799999999997
 21
228.01
 31
0.0
  0
LINE
  5
4B06
330
1F
100
AcDbEntity
  8
3-線
100
AcDbLine
 10
189.9599999999998
 20
219.49
 30
0.0
 11
192.4799999999997
 21
222.0099999999999
 31
0.0
  0
LINE
  5
4B07
330
1F
100
AcDbEntity
  8
3-線
100
AcDbLine
 10
192.4799999999997
 20
228.01
 30
0.0
 11
192.4799999999997
 21
222.0099999999999
 31
0.0
  0
LINE
  5
4B08
330
1F
100
AcDbEntity
  8
3-線
100
AcDbLine
 10
215.9999999999999
 20
228.01
 30
0.0
 11
244.7562912100079
 21
228.01
 31
0.0
  0
ARC
  5
4B09
330
1F
100
AcDbEntity
  8
3-線
100
AcDbCircle
 10
244.7562912100079
 20
216.0099999999999
 30
0.0
 40
12.0
100
AcDbArc
 50
11.86287255747451
 51
90.0
  0
LINE
  5
4B0A
330
1F
100
AcDbEntity
  8
3-線
100
AcDbLine
 10
239.01
 20
222.0099999999999
 30
0.0
 11
242.01
 21
219.0099999999999
 31
0.0
  0
ARC
  5
4B0B
330
1F
100
AcDbEntity
  8
3-線
100
AcDbCircle
 10
252.5100000000001
 20
218.0200000000001
 30
0.0
 40
3.99
100
AcDbArc
 50
0.0
 51
90.0
  0
LINE
  5
4B0C
330
1F
100
AcDbEntity
  8
1-破線
100
AcDbLine
 10
309.0200000000001
 20
221.0
 30
0.0
 11
311.4999999999998
 21
223.4799999999999
 31
0.0
  0
ARC
  5
4B0D
330
1F
100
AcDbEntity
  8
3-線
100
AcDbCircle
 10
309.0099999999998
 20
235.0099999999999
 30
0.0
 40
2.489999999999999
100
AcDbArc
 50
0.0
 51
90.0
  0
LINE
  5
4B0E
330
1F
100
AcDbEntity
  8
3-線
100
AcDbLine
 10
285.6500000000001
 20
237.5
 30
0.0
 11
285.6500000000003
 21
204.6032028919467
 31
0.0
  0
LINE
  5
4B0F
330
1F
100
AcDbEntity
  8
3-線
100
AcDbLine
 10
282.3499999999998
 20
237.4900000000001
 30
0.0
 11
282.3500000000002
 21
204.6032028919467
 31
0.0
  0
ARC
  5
4B10
330
1F
100
AcDbEntity
  8
3-線
100
AcDbCircle
 10
284.0000000000003
 20
196.0
 30
0.0
 40
8.759999999999998
100
AcDbArc
 50
278.2698581325491
 51
81.73014186745094
  0
ARC
  5
4B11
330
1F
100
AcDbEntity
  8
3-線
100
AcDbCircle
 10
284.0000000000003
 20
196.0
 30
0.0
 40
8.759999999999998
100
AcDbArc
 50
98.26985813254903
 51
261.7301418674509
  0
LINE
  5
4B12
330
1F
100
AcDbEntity
  8
3-線
100
AcDbLine
 10
285.6500000000001
 20
237.5
 30
0.0
 11
309.0099999999998
 21
237.4999999999999
 31
0.0
  0
LINE
  5
4B13
330
1F
100
AcDbEntity
  8
3-線
100
AcDbLine
 10
285.26
 20
235.0099999999999
 30
0.0
 11
285.65
 21
235.0099999999999
 31
0.0
  0
ARC
  5
4B14
330
1F
100
AcDbEntity
  8
3-線
100
AcDbCircle
 10
283.9999999999999
 20
236.2699999999998
 30
0.0
 40
1.26
100
AcDbArc
 50
0.0
 51
180.0
  0
LINE
  5
4B15
330
1F
100
AcDbEntity
  8
3-線
100
AcDbLine
 10
282.3499999999999
 20
235.0099999999999
 30
0.0
 11
282.7399999999999
 21
235.0099999999999
 31
0.0
  0
LINE
  5
52C4
330
1F
100
AcDbEntity
  8
1-破線
100
AcDbLine
 10
255.1632432983051
 20
221.0
 30
0.0
 11
309.01
 21
221.0
 31
0.0
  0
LINE
  5
52C5
330
1F
100
AcDbEntity
  8
1-破線
100
AcDbLine
 10
255.1632432983047
 20
171.0
 30
0.0
 11
309.0100000000003
 21
171.0
 31
0.0
  0
LINE
  5
52C6
330
1F
100
AcDbEntity
  8
3-線
100
AcDbLine
 10
175.4999999999998
 20
220.9999999999997
 30
0.0
 11
156.7699999999998
 21
220.9999999999996
 31
0.0
  0
LINE
  5
52C7
330
1F
100
AcDbEntity
  8
3-線
100
AcDbLine
 10
175.5000000000003
 20
170.9999999999997
 30
0.0
 11
154.2500000000005
 21
170.9999999999995
 31
0.0
  0
LINE
  5
52C8
330
1F
100
AcDbEntity
  8
3-線
100
AcDbLine
 10
122.9899999999999
 20
220.9999999999993
 30
0.0
 11
122.99
 21
170.9999999999993
 31
0.0
  0
LINE
  5
52C9
330
1F
100
AcDbEntity
  8
3-線
100
AcDbLine
 10
122.9800000000001
 20
170.9999999999993
 30
0.0
 11
120.5000000000001
 21
168.5199999999993
 31
0.0
  0
LINE
  5
52CA
330
1F
100
AcDbEntity
  8
3-線
100
AcDbLine
 10
122.9799999999998
 20
220.9999999999993
 30
0.0
 11
120.5000000000001
 21
223.4799999999992
 31
0.0
  0
LINE
  5
52CE
330
1F
100
AcDbEntity
  8
3-線
100
AcDbLine
 10
141.7700000000005
 20
170.9999999999995
 30
0.0
 11
122.99
 21
170.9999999999993
 31
0.0
  0
LINE
  5
52CF
330
1F
100
AcDbEntity
  8
3-線
100
AcDbLine
 10
139.2499999999998
 20
220.9999999999994
 30
0.0
 11
122.9899999999999
 21
220.9999999999993
 31
0.0
  0
LINE
  5
52DD
330
1F
100
AcDbEntity
  8
3-線
100
AcDbLine
 10
139.2500000000003
 20
170.9999999999994
 30
0.0
 11
139.2500000000004
 21
154.5100000000001
 31
0.0
  0
LINE
  5
52DE
330
1F
100
AcDbEntity
  8
3-線
100
AcDbLine
 10
156.7700000000003
 20
170.9999999999995
 30
0.0
 11
156.7700000000005
 21
154.5100000000001
 31
0.0
  0
ENDSEC
  0
SECTION
  2
OBJECTS
  0
DICTIONARY
  5
C
330
0
100
AcDbDictionary
281
     1
  3
ACAD_COLOR
350
5325
  3
ACAD_GROUP
350
D
  3
ACAD_LAYOUT
350
1A
  3
ACAD_MATERIAL
350
5324
  3
ACAD_MLINESTYLE
350
17
  3
ACAD_PLOTSETTINGS
350
19
  3
ACAD_PLOTSTYLENAME
350
E
  3
AcadDim
350
4270
  3
AcDbVariableDictionary
350
985
  0
DICTIONARY
  5
474
330
1F
100
AcDbDictionary
280
     1
281
     1
  3
ACAD_LAYOUTSELFREF
360
4B6
  0
DICTIONARY
  5
476
330
1B
100
AcDbDictionary
280
     1
281
     1
  3
ACAD_LAYOUTSELFREF
360
4B5
  0
DICTIONARY
  5
478
330
23
100
AcDbDictionary
280
     1
281
     1
  3
ACAD_LAYOUTSELFREF
360
4B7
  0
DICTIONARY
  5
5325
102
{ACAD_REACTORS
330
C
102
}
330
C
100
AcDbDictionary
281
     1
  0
DICTIONARY
  5
D
102
{ACAD_REACTORS
330
C
102
}
330
C
100
AcDbDictionary
281
     1
  0
DICTIONARY
  5
1A
102
{ACAD_REACTORS
330
C
102
}
330
C
100
AcDbDictionary
281
     1
  3
Model
350
22
  3
ﾚｲｱｳﾄ1
350
1E
  3
ﾚｲｱｳﾄ2
350
26
  0
DICTIONARY
  5
5324
102
{ACAD_REACTORS
330
C
102
}
330
C
100
AcDbDictionary
281
     1
  0
DICTIONARY
  5
17
102
{ACAD_REACTORS
330
C
102
}
330
C
100
AcDbDictionary
281
     1
  3
Standard
350
18
  0
DICTIONARY
  5
19
102
{ACAD_REACTORS
330
C
102
}
330
C
100
AcDbDictionary
281
     1
  3
Kyouwa-A3
350
52D6
  0
ACDBDICTIONARYWDFLT
  5
E
102
{ACAD_REACTORS
330
C
102
}
330
C
100
AcDbDictionary
281
     1
  3
Normal
350
F
100
AcDbDictionaryWithDefault
340
F
1001
ACAD
1000
TREAT_AS_HARD
1070
     0
  0
XRECORD
  5
4270
102
{ACAD_REACTORS
330
C
102
}
330
C
100
AcDbXrecord
280
     1
 90
   990106
  3

 60
     4
 61
     0
 62
     4
 63
     4
 64
     1
 65
     0
 66
     0
 67
     2
 68
     1
 69
     0
 70
     0
 71
     0
 72
     0
 40
15.0
170
     1
  0
DICTIONARY
  5
985
102
{ACAD_REACTORS
330
C
102
}
330
C
100
AcDbDictionary
281
     1
  3
SORTENTS
350
986
  0
XRECORD
  5
4B6
102
{ACAD_REACTORS
330
474
102
}
330
474
100
AcDbXrecord
280
     1
340
1F
  0
XRECORD
  5
4B5
102
{ACAD_REACTORS
330
476
102
}
330
476
100
AcDbXrecord
280
     1
340
1B
  0
XRECORD
  5
4B7
102
{ACAD_REACTORS
330
478
102
}
330
478
100
AcDbXrecord
280
     1
340
23
  0
LAYOUT
  5
22
102
{ACAD_REACTORS
330
1A
102
}
330
1A
100
AcDbPlotSettings
  1
Kyouwa-A3
  2
HP DesignJet 430.pc3
  4
User269
  6
OLE1
 40
4.995333194732666
 41
16.93333625793457
 42
4.995330810546875
 43
16.93331909179687
 44
296.9259948730469
 45
419.8619995117186
 46
-5.0
 47
-25.0
 48
0.0
 49
0.0
140
0.0
141
0.0
142
1.0
143
1.0
 70
 11952
 72
     1
 73
     1
 74
     2
  7
monochrome.ctb
 75
    16
147
1.0
 76
     0
 77
     2
 78
   300
148
0.0
149
0.0
100
AcDbLayout
  1
Model
 70
     1
 71
     0
 10
0.0
 20
0.0
 11
12.0
 21
9.0
 12
0.0
 22
0.0
 32
0.0
 14
0.0
 24
0.0
 34
0.0
 15
0.0
 25
0.0
 35
0.0
146
0.0
 13
0.0
 23
0.0
 33
0.0
 16
1.0
 26
0.0
 36
0.0
 17
0.0
 27
1.0
 37
0.0
 76
     0
330
1F
  0
LAYOUT
  5
1E
102
{ACAD_REACTORS
330
1A
102
}
330
1A
100
AcDbPlotSettings
  1

  2
C:\PROGRAM FILES\AUTOCAD LT 2000I\plotters\DWF Classic.pc3
  4

  6

 40
0.0
 41
0.0
 42
0.0
 43
0.0
 44
0.0
 45
0.0
 46
0.0
 47
0.0
 48
0.0
 49
0.0
140
0.0
141
0.0
142
1.0
143
1.0
 70
   688
 72
     0
 73
     0
 74
     5
  7
monochrome.ctb
 75
    16
147
1.0
 76
     0
 77
     2
 78
   300
148
0.0
149
0.0
100
AcDbLayout
  1
ﾚｲｱｳﾄ1
 70
     1
 71
     1
 10
0.0
 20
0.0
 11
420.0
 21
297.0
 12
0.0
 22
0.0
 32
0.0
 14
1.000000000000000E+20
 24
1.000000000000000E+20
 34
1.000000000000000E+20
 15
-1.000000000000000E+20
 25
-1.000000000000000E+20
 35
-1.000000000000000E+20
146
0.0
 13
0.0
 23
0.0
 33
0.0
 16
1.0
 26
0.0
 36
0.0
 17
0.0
 27
1.0
 37
0.0
 76
     0
330
1B
  0
LAYOUT
  5
26
102
{ACAD_REACTORS
330
1A
102
}
330
1A
100
AcDbPlotSettings
  1

  2
C:\PROGRAM FILES\AUTOCAD LT 2000I\plotters\DWF Classic.pc3
  4

  6

 40
0.0
 41
0.0
 42
0.0
 43
0.0
 44
0.0
 45
0.0
 46
0.0
 47
0.0
 48
0.0
 49
0.0
140
0.0
141
0.0
142
1.0
143
1.0
 70
   688
 72
     0
 73
     0
 74
     5
  7
monochrome.ctb
 75
    16
147
1.0
 76
     0
 77
     2
 78
   300
148
0.0
149
0.0
100
AcDbLayout
  1
ﾚｲｱｳﾄ2
 70
     1
 71
     2
 10
0.0
 20
0.0
 11
12.0
 21
9.0
 12
0.0
 22
0.0
 32
0.0
 14
0.0
 24
0.0
 34
0.0
 15
0.0
 25
0.0
 35
0.0
146
0.0
 13
0.0
 23
0.0
 33
0.0
 16
1.0
 26
0.0
 36
0.0
 17
0.0
 27
1.0
 37
0.0
 76
     0
330
23
  0
MLINESTYLE
  5
18
102
{ACAD_REACTORS
330
17
102
}
330
17
100
AcDbMlineStyle
  2
STANDARD
 70
     0
  3

 62
   256
 51
90.0
 52
90.0
 71
     2
 49
0.5
 62
   256
  6
BYLAYER
 49
-0.5
 62
   256
  6
BYLAYER
  0
PLOTSETTINGS
  5
52D6
102
{ACAD_REACTORS
330
19
102
}
330
19
100
AcDbPlotSettings
  1
Kyouwa-A3
  2
HP DesignJet 430.pc3
  4
User269
  6
OLE1
 40
4.995333194732666
 41
16.93333625793457
 42
4.995330810546875
 43
16.93331909179687
 44
296.9259948730469
 45
419.8619995117186
 46
-5.0
 47
-25.0
 48
0.0
 49
0.0
140
0.0
141
0.0
142
1.0
143
1.0
 70
  1712
 72
     1
 73
     1
 74
     2
  7
monochrome.ctb
 75
    16
147
1.0
 76
     0
 77
     2
 78
   300
148
0.0
149
0.0
  0
ACDBPLACEHOLDER
  5
F
102
{ACAD_REACTORS
330
E
102
}
330
E
  0
DICTIONARYVAR
  5
986
102
{ACAD_REACTORS
330
985
102
}
330
985
100
DictionaryVariables
280
     0
  1
96
  0
ENDSEC
  0
EOF
